  0
SECTION
  2
HEADER
  9
$ACADVER
  1
AC1018
  9
$ACADMAINTVER
 70
   104
  9
$DWGCODEPAGE
  3
ANSI_936
  9
$LASTSAVEDBY
  1
Administrator
  9
$INSBASE
 10
0.0
 20
0.0
 30
0.0
  9
$EXTMIN
 10
-0.0128164049386896
 20
-0.0090630292066862
 30
-0.0015258207003583
  9
$EXTMAX
 10
296.9979866745394
 20
210.0200048627099
 30
0.0000000349246037
  9
$LIMMIN
 10
0.0
 20
0.0
  9
$LIMMAX
 10
420.0
 20
297.0
  9
$ORTHOMODE
 70
     0
  9
$REGENMODE
 70
     1
  9
$FILLMODE
 70
     1
  9
$QTEXTMODE
 70
     0
  9
$MIRRTEXT
 70
     0
  9
$LTSCALE
 40
1.0
  9
$ATTMODE
 70
     1
  9
$TEXTSIZE
 40
2.0
  9
$TRACEWID
 40
1.0
  9
$TEXTSTYLE
  7
尺寸标注用文字
  9
$CLAYER
  8
尺寸标注层
  9
$CELTYPE
  6
ByLayer
  9
$CECOLOR
 62
   256
  9
$CELTSCALE
 40
1.0
  9
$DISPSILH
 70
     0
  9
$DIMSCALE
 40
1.0
  9
$DIMASZ
 40
1.5
  9
$DIMEXO
 40
0.5
  9
$DIMDLI
 40
5.0
  9
$DIMRND
 40
0.0
  9
$DIMDLE
 40
0.0
  9
$DIMEXE
 40
0.5
  9
$DIMTP
 40
0.0
  9
$DIMTM
 40
0.0
  9
$DIMTXT
 40
2.0
  9
$DIMCEN
 40
0.0
  9
$DIMTSZ
 40
0.0
  9
$DIMTOL
 70
     0
  9
$DIMLIM
 70
     0
  9
$DIMTIH
 70
     0
  9
$DIMTOH
 70
     0
  9
$DIMSE1
 70
     0
  9
$DIMSE2
 70
     0
  9
$DIMTAD
 70
     1
  9
$DIMZIN
 70
     8
  9
$DIMBLK
  1

  9
$DIMASO
 70
     1
  9
$DIMSHO
 70
     1
  9
$DIMPOST
  1

  9
$DIMAPOST
  1

  9
$DIMALT
 70
     0
  9
$DIMALTD
 70
     2
  9
$DIMALTF
 40
25.4
  9
$DIMLFAC
 40
1.0
  9
$DIMTOFL
 70
     1
  9
$DIMTVP
 40
0.0
  9
$DIMTIX
 70
     0
  9
$DIMSOXD
 70
     0
  9
$DIMSAH
 70
     0
  9
$DIMBLK1
  1

  9
$DIMBLK2
  1

  9
$DIMSTYLE
  2
1比1-S
  9
$DIMCLRD
 70
     0
  9
$DIMCLRE
 70
     0
  9
$DIMCLRT
 70
     0
  9
$DIMTFAC
 40
1.0
  9
$DIMGAP
 40
0.5
  9
$DIMJUST
 70
     0
  9
$DIMSD1
 70
     0
  9
$DIMSD2
 70
     0
  9
$DIMTOLJ
 70
     1
  9
$DIMTZIN
 70
     0
  9
$DIMALTZ
 70
     0
  9
$DIMALTTZ
 70
     0
  9
$DIMUPT
 70
     1
  9
$DIMDEC
 70
     2
  9
$DIMTDEC
 70
     2
  9
$DIMALTU
 70
     2
  9
$DIMALTTD
 70
     2
  9
$DIMTXSTY
  7
尺寸标注用文字
  9
$DIMAUNIT
 70
     0
  9
$DIMADEC
 70
     1
  9
$DIMALTRND
 40
0.0
  9
$DIMAZIN
 70
     2
  9
$DIMDSEP
 70
    46
  9
$DIMATFIT
 70
     3
  9
$DIMFRAC
 70
     0
  9
$DIMLDRBLK
  1

  9
$DIMLUNIT
 70
     2
  9
$DIMLWD
 70
    -2
  9
$DIMLWE
 70
    -2
  9
$DIMTMOVE
 70
     0
  9
$LUNITS
 70
     2
  9
$LUPREC
 70
     4
  9
$SKETCHINC
 40
1.0
  9
$FILLETRAD
 40
0.0
  9
$AUNITS
 70
     0
  9
$AUPREC
 70
     0
  9
$MENU
  1
.
  9
$ELEVATION
 40
0.0
  9
$PELEVATION
 40
0.0
  9
$THICKNESS
 40
0.0
  9
$LIMCHECK
 70
     0
  9
$CHAMFERA
 40
0.0
  9
$CHAMFERB
 40
0.0
  9
$CHAMFERC
 40
0.0
  9
$CHAMFERD
 40
0.0
  9
$SKPOLY
 70
     0
  9
$TDCREATE
 40
2454877.591493588
  9
$TDUCREATE
 40
2454877.258160255
  9
$TDUPDATE
 40
2459824.454881528
  9
$TDUUPDATE
 40
2459824.121548194
  9
$TDINDWG
 40
0.3065817014
  9
$TDUSRTIMER
 40
0.3065817014
  9
$USRTIMER
 70
     1
  9
$ANGBASE
 50
0.0
  9
$ANGDIR
 70
     0
  9
$PDMODE
 70
     0
  9
$PDSIZE
 40
0.0
  9
$PLINEWID
 40
0.0
  9
$SPLFRAME
 70
     0
  9
$SPLINETYPE
 70
     6
  9
$SPLINESEGS
 70
     8
  9
$HANDSEED
  5
4449
  9
$SURFTAB1
 70
     6
  9
$SURFTAB2
 70
     6
  9
$SURFTYPE
 70
     6
  9
$SURFU
 70
     6
  9
$SURFV
 70
     6
  9
$UCSBASE
  2

  9
$UCSNAME
  2

  9
$UCSORG
 10
0.0
 20
0.0
 30
0.0
  9
$UCSXDIR
 10
1.0
 20
0.0
 30
0.0
  9
$UCSYDIR
 10
0.0
 20
1.0
 30
0.0
  9
$UCSORTHOREF
  2

  9
$UCSORTHOVIEW
 70
     0
  9
$UCSORGTOP
 10
0.0
 20
0.0
 30
0.0
  9
$UCSORGBOTTOM
 10
0.0
 20
0.0
 30
0.0
  9
$UCSORGLEFT
 10
0.0
 20
0.0
 30
0.0
  9
$UCSORGRIGHT
 10
0.0
 20
0.0
 30
0.0
  9
$UCSORGFRONT
 10
0.0
 20
0.0
 30
0.0
  9
$UCSORGBACK
 10
0.0
 20
0.0
 30
0.0
  9
$PUCSBASE
  2

  9
$PUCSNAME
  2

  9
$PUCSORG
 10
0.0
 20
0.0
 30
0.0
  9
$PUCSXDIR
 10
1.0
 20
0.0
 30
0.0
  9
$PUCSYDIR
 10
0.0
 20
1.0
 30
0.0
  9
$PUCSORTHOREF
  2

  9
$PUCSORTHOVIEW
 70
     0
  9
$PUCSORGTOP
 10
0.0
 20
0.0
 30
0.0
  9
$PUCSORGBOTTOM
 10
0.0
 20
0.0
 30
0.0
  9
$PUCSORGLEFT
 10
0.0
 20
0.0
 30
0.0
  9
$PUCSORGRIGHT
 10
0.0
 20
0.0
 30
0.0
  9
$PUCSORGFRONT
 10
0.0
 20
0.0
 30
0.0
  9
$PUCSORGBACK
 10
0.0
 20
0.0
 30
0.0
  9
$USERI1
 70
     0
  9
$USERI2
 70
     0
  9
$USERI3
 70
     0
  9
$USERI4
 70
     0
  9
$USERI5
 70
     0
  9
$USERR1
 40
0.0
  9
$USERR2
 40
0.0
  9
$USERR3
 40
0.0
  9
$USERR4
 40
0.0
  9
$USERR5
 40
2.5
  9
$WORLDVIEW
 70
     1
  9
$SHADEDGE
 70
     3
  9
$SHADEDIF
 70
    70
  9
$TILEMODE
 70
     1
  9
$MAXACTVP
 70
    64
  9
$PINSBASE
 10
0.0
 20
0.0
 30
0.0
  9
$PLIMCHECK
 70
     0
  9
$PEXTMIN
 10
0.0
 20
0.0
 30
0.0
  9
$PEXTMAX
 10
0.0
 20
0.0
 30
0.0
  9
$PLIMMIN
 10
0.0
 20
0.0
  9
$PLIMMAX
 10
12.0
 20
9.0
  9
$UNITMODE
 70
     0
  9
$VISRETAIN
 70
     1
  9
$PLINEGEN
 70
     0
  9
$PSLTSCALE
 70
     1
  9
$TREEDEPTH
 70
  3020
  9
$CMLSTYLE
  2
Standard
  9
$CMLJUST
 70
     0
  9
$CMLSCALE
 40
20.0
  9
$PROXYGRAPHICS
 70
     1
  9
$MEASUREMENT
 70
     1
  9
$CELWEIGHT
370
    -1
  9
$ENDCAPS
280
     0
  9
$JOINSTYLE
280
     0
  9
$LWDISPLAY
290
     0
  9
$INSUNITS
 70
     4
  9
$HYPERLINKBASE
  1

  9
$STYLESHEET
  1
monochrome.ctb
  9
$XEDIT
290
     1
  9
$CEPSNTYPE
380
     0
  9
$PSTYLEMODE
290
     1
  9
$FINGERPRINTGUID
  2
{FDEAD578-A652-11D2-9A35-0060089B3A3F}
  9
$VERSIONGUID
  2
{B1AA832D-BD97-4268-9096-A1F1B7770D63}
  9
$EXTNAMES
290
     1
  9
$PSVPSCALE
 40
0.0
  9
$OLESTARTUP
290
     0
  9
$SORTENTS
280
   127
  9
$INDEXCTL
280
     0
  9
$HIDETEXT
280
     1
  9
$XCLIPFRAME
290
     0
  9
$HALOGAP
280
     0
  9
$OBSCOLOR
 70
   257
  9
$OBSLTYPE
280
     0
  9
$INTERSECTIONDISPLAY
280
     0
  9
$INTERSECTIONCOLOR
 70
   257
  9
$DIMASSOC
280
     2
  9
$PROJECTNAME
  1

  0
ENDSEC
  0
SECTION
  2
CLASSES
  0
CLASS
  1
ACDBDICTIONARYWDFLT
  2
AcDbDictionaryWithDefault
  3
ObjectDBX Classes
 90
        0
 91
        1
280
     0
281
     0
  0
CLASS
  1
ACDBPLACEHOLDER
  2
AcDbPlaceHolder
  3
ObjectDBX Classes
 90
        0
 91
        1
280
     0
281
     0
  0
CLASS
  1
LAYOUT
  2
AcDbLayout
  3
ObjectDBX Classes
 90
        0
 91
        3
280
     0
281
     0
  0
CLASS
  1
DICTIONARYVAR
  2
AcDbDictionaryVar
  3
ObjectDBX Classes
 90
        0
 91
        6
280
     0
281
     0
  0
CLASS
  1
MATERIAL
  2
AcDbMaterial
  3
ObjectDBX Classes
 90
     1024
 91
        3
280
     0
281
     0
  0
CLASS
  1
DIMASSOC
  2
AcDbDimAssoc
  3
"AcDbDimAssoc|Product Desc:     AcDim ARX App For Dimension|Company:          Autodesk, Inc.|WEB Address:      www.autodesk.com"
 90
        0
 91
        3
280
     0
281
     0
  0
CLASS
  1
SORTENTSTABLE
  2
AcDbSortentsTable
  3
ObjectDBX Classes
 90
        0
 91
        3
280
     0
281
     0
  0
CLASS
  1
VISUALSTYLE
  2
AcDbVisualStyle
  3
ObjectDBX Classes
 90
     4095
 91
       26
280
     0
281
     0
  0
CLASS
  1
TABLESTYLE
  2
AcDbTableStyle
  3
ObjectDBX Classes
 90
     4095
 91
        1
280
     0
281
     0
  0
CLASS
  1
SCALE
  2
AcDbScale
  3
ObjectDBX Classes
 90
     1153
 91
       17
280
     0
281
     0
  0
CLASS
  1
MLEADERSTYLE
  2
AcDbMLeaderStyle
  3
ACDB_MLEADERSTYLE_CLASS
 90
     4095
 91
        1
280
     0
281
     0
  0
CLASS
  1
VLO-VL
  2
vlo_VL
  3
VL|AutoLISP based application
 90
      129
 91
        3
280
     0
281
     0
  0
CLASS
  1
CELLSTYLEMAP
  2
AcDbCellStyleMap
  3
ObjectDBX Classes
 90
     1152
 91
        1
280
     0
281
     0
  0
ENDSEC
  0
SECTION
  2
TABLES
  0
TABLE
  2
VPORT
  5
8
102
{ACAD_XDICTIONARY
360
1990
102
}
330
0
100
AcDbSymbolTable
 70
     1
  0
VPORT
  5
191F
330
8
100
AcDbSymbolTableRecord
100
AcDbViewportTableRecord
  2
*Active
 70
     0
 10
0.0
 20
0.0
 11
1.0
 21
1.0
 12
148.4925851348003
 22
105.0054709167516
 13
0.0
 23
0.0
 14
10.0
 24
10.0
 15
10.0
 25
10.0
 16
0.0
 26
0.0
 36
1.0
 17
0.0
 27
0.0
 37
0.0
 40
211.5310636098564
 41
2.161097852028639
 42
50.0
 43
0.0
 44
0.0
 50
0.0
 51
0.0
 71
     0
 72
  1000
 73
     1
 74
     3
 75
     0
 76
     0
 77
     0
 78
     0
281
     0
 65
     1
110
0.0
120
0.0
130
0.0
111
1.0
121
0.0
131
0.0
112
0.0
122
1.0
132
0.0
 79
     0
146
0.0
1001
ACAD_NAV_VCDISPLAY
1070
     3
  0
ENDTAB
  0
TABLE
  2
LTYPE
  5
5
330
0
100
AcDbSymbolTable
 70
     6
  0
LTYPE
  5
14
330
5
100
AcDbSymbolTableRecord
100
AcDbLinetypeTableRecord
  2
ByBlock
 70
     0
  3

 72
    65
 73
     0
 40
0.0
  0
LTYPE
  5
15
330
5
100
AcDbSymbolTableRecord
100
AcDbLinetypeTableRecord
  2
ByLayer
 70
     0
  3

 72
    65
 73
     0
 40
0.0
  0
LTYPE
  5
16
330
5
100
AcDbSymbolTableRecord
100
AcDbLinetypeTableRecord
  2
Continuous
 70
     0
  3
Solid line
 72
    65
 73
     0
 40
0.0
  0
LTYPE
  5
539
330
5
100
AcDbSymbolTableRecord
100
AcDbLinetypeTableRecord
  2
CENTER2
 70
     0
  3
Center (.5x) ___ _ ___ _ ___ _ ___ _ ___ _ ___
 72
    65
 73
     4
 40
28.575
 49
19.05
 74
     0
 49
-3.174999999999999
 74
     0
 49
3.174999999999999
 74
     0
 49
-3.174999999999999
 74
     0
  0
LTYPE
  5
53A
330
5
100
AcDbSymbolTableRecord
100
AcDbLinetypeTableRecord
  2
PHANTOM
 70
     0
  3
_____ _ _ _____ _ _ _____ _ _ _____
 72
    65
 73
     6
 40
0.8
 49
0.45
 74
     0
 49
-0.05
 74
     0
 49
0.1
 74
     0
 49
-0.05
 74
     0
 49
0.1
 74
     0
 49
-0.05
 74
     0
  0
LTYPE
  5
15B8
330
5
100
AcDbSymbolTableRecord
100
AcDbLinetypeTableRecord
  2
DASHED2
 70
     0
  3
Dashed (.5x) _ _ _ _ _ _ _ _ _ _ _ _ _ _ _ _ _
 72
    65
 73
     2
 40
9.524999999999998
 49
6.349999999999999
 74
     0
 49
-3.174999999999999
 74
     0
  0
LTYPE
  5
15B9
330
5
100
AcDbSymbolTableRecord
100
AcDbLinetypeTableRecord
  2
CENTER
 70
     0
  3
____ _ ____ _ ____ _ ____ _ ____ _ ____ _ ____
 72
    65
 73
     4
 40
0.6
 49
0.375
 74
     0
 49
-0.075
 74
     0
 49
0.075
 74
     0
 49
-0.075
 74
     0
  0
ENDTAB
  0
TABLE
  2
LAYER
  5
2
102
{ACAD_XDICTIONARY
360
55C
102
}
330
0
100
AcDbSymbolTable
 70
    14
  0
LAYER
  5
10
102
{ACAD_XDICTIONARY
360
1BA1
102
}
330
2
100
AcDbSymbolTableRecord
100
AcDbLayerTableRecord
  2
0
 70
     0
 62
     7
  6
Continuous
370
    -3
390
F
  0
LAYER
  5
53B
102
{ACAD_XDICTIONARY
360
1BA3
102
}
330
2
100
AcDbSymbolTableRecord
100
AcDbLayerTableRecord
  2
轮廓线层
 70
     0
 62
     3
  6
Continuous
370
    -3
390
F
  0
LAYER
  5
53E
102
{ACAD_XDICTIONARY
360
1BA5
102
}
330
2
100
AcDbSymbolTableRecord
100
AcDbLayerTableRecord
  2
细实线层
 70
     0
 62
     7
  6
Continuous
370
    -3
390
F
  0
LAYER
  5
541
102
{ACAD_XDICTIONARY
360
1BA7
102
}
330
2
100
AcDbSymbolTableRecord
100
AcDbLayerTableRecord
  2
签字
 70
     0
 62
   252
  6
Continuous
290
     0
370
    -3
390
F
  0
LAYER
  5
544
102
{ACAD_XDICTIONARY
360
1BA9
102
}
330
2
100
AcDbSymbolTableRecord
100
AcDbLayerTableRecord
  2
尺寸标注层
 70
     0
 62
     4
  6
Continuous
370
    -3
390
F
  0
LAYER
  5
547
102
{ACAD_XDICTIONARY
360
1BAB
102
}
330
2
100
AcDbSymbolTableRecord
100
AcDbLayerTableRecord
  2
中心线层
 70
     0
 62
     1
  6
CENTER2
370
    -3
390
F
  0
LAYER
  5
54A
102
{ACAD_XDICTIONARY
360
1BAD
102
}
330
2
100
AcDbSymbolTableRecord
100
AcDbLayerTableRecord
  2
文字标准层
 70
     0
 62
     4
  6
Continuous
370
    -3
390
F
1001
RAK
1000
{ACET-LAYISO
1070
     0
1070
    45
1000
Continuous
1071
       -3
1071
        1
1005
F
1000
ACET-LAYISO}
  0
LAYER
  5
15BA
102
{ACAD_XDICTIONARY
360
1BAF
102
}
330
2
100
AcDbSymbolTableRecord
100
AcDbLayerTableRecord
  2
虚线层
 70
     0
 62
     2
  6
DASHED2
370
    -3
390
F
  0
LAYER
  5
15BD
102
{ACAD_XDICTIONARY
360
1BB1
102
}
330
2
100
AcDbSymbolTableRecord
100
AcDbLayerTableRecord
  2
细点划线层
 70
     0
 62
     7
  6
Continuous
370
    -3
390
F
  0
LAYER
  5
1761
102
{ACAD_XDICTIONARY
360
1BB3
102
}
330
2
100
AcDbSymbolTableRecord
100
AcDbLayerTableRecord
  2
设变层
 70
     0
 62
    32
  6
Continuous
370
    -3
390
F
  0
LAYER
  5
1778
102
{ACAD_XDICTIONARY
360
1BB5
102
}
330
2
100
AcDbSymbolTableRecord
100
AcDbLayerTableRecord
  2
引出线层
 70
     0
 62
     2
  6
Continuous
370
    -3
390
F
  0
LAYER
  5
2199
330
2
100
AcDbSymbolTableRecord
100
AcDbLayerTableRecord
  2
Defpoints
 70
     0
 62
     7
  6
Continuous
290
     0
370
    -3
390
F
  0
LAYER
  5
3DED
330
2
100
AcDbSymbolTableRecord
100
AcDbLayerTableRecord
  2
签字层
 70
     0
 62
    21
  6
Continuous
370
    -3
390
F
  0
LAYER
  5
416B
330
2
100
AcDbSymbolTableRecord
100
AcDbLayerTableRecord
  2
dim
 70
     0
 62
    82
  6
Continuous
370
     9
390
F
  0
ENDTAB
  0
TABLE
  2
STYLE
  5
3
330
0
100
AcDbSymbolTable
 70
     5
  0
STYLE
  5
11
330
3
100
AcDbSymbolTableRecord
100
AcDbTextStyleTableRecord
  2
Standard
 70
     0
 40
0.0
 41
1.0
 50
0.0
 71
     0
 42
2.5
  3
txt
  4

  0
STYLE
  5
54E
330
3
100
AcDbSymbolTableRecord
100
AcDbTextStyleTableRecord
  2
宋体
 70
     0
 40
0.0
 41
1.0
 50
0.0
 71
     0
 42
0.2
  3

  4

1001
ACAD
1000
SimSun
1071
    34306
  0
STYLE
  5
54F
330
3
100
AcDbSymbolTableRecord
100
AcDbTextStyleTableRecord
  2
黑体
 70
     0
 40
0.0
 41
1.0
 50
0.0
 71
     0
 42
0.2
  3
simhei_0.ttf
  4

1001
ACAD
1000
SimHei
1071
    34306
  0
STYLE
  5
1C7D
330
3
100
AcDbSymbolTableRecord
100
AcDbTextStyleTableRecord
  2
尺寸标注用文字
 70
     0
 40
0.0
 41
0.9
 50
0.0
 71
     0
 42
2.0
  3
txt.shx
  4

  0
STYLE
  5
41D5
330
3
100
AcDbSymbolTableRecord
100
AcDbTextStyleTableRecord
  2
Dim
 70
     0
 40
0.0
 41
0.9
 50
0.0
 71
     0
 42
2.0
  3
txt.shx
  4

  0
ENDTAB
  0
TABLE
  2
VIEW
  5
6
330
0
100
AcDbSymbolTable
 70
     0
  0
ENDTAB
  0
TABLE
  2
UCS
  5
7
330
0
100
AcDbSymbolTable
 70
     0
  0
ENDTAB
  0
TABLE
  2
APPID
  5
9
330
0
100
AcDbSymbolTable
 70
    11
  0
APPID
  5
12
330
9
100
AcDbSymbolTableRecord
100
AcDbRegAppTableRecord
  2
ACAD
 70
     0
  0
APPID
  5
558
330
9
100
AcDbSymbolTableRecord
100
AcDbRegAppTableRecord
  2
RAK
 70
     0
  0
APPID
  5
15CD
330
9
100
AcDbSymbolTableRecord
100
AcDbRegAppTableRecord
  2
ACAD_EXEMPT_FROM_CAD_STANDARDS
 70
     0
  0
APPID
  5
15CE
330
9
100
AcDbSymbolTableRecord
100
AcDbRegAppTableRecord
  2
ACAD_PSEXT
 70
     0
  0
APPID
  5
15CF
330
9
100
AcDbSymbolTableRecord
100
AcDbRegAppTableRecord
  2
DCO15
 70
     0
  0
APPID
  5
1A78
330
9
100
AcDbSymbolTableRecord
100
AcDbRegAppTableRecord
  2
AcAecLayerStandard
 70
     0
  0
APPID
  5
1C69
330
9
100
AcDbSymbolTableRecord
100
AcDbRegAppTableRecord
  2
ACAD_MLEADERVER
 70
     0
  0
APPID
  5
2422
330
9
100
AcDbSymbolTableRecord
100
AcDbRegAppTableRecord
  2
ACAD_DSTYLE_DIMJAG
 70
     0
  0
APPID
  5
2423
330
9
100
AcDbSymbolTableRecord
100
AcDbRegAppTableRecord
  2
ACAD_DSTYLE_DIMTALN
 70
     0
  0
APPID
  5
2834
330
9
100
AcDbSymbolTableRecord
100
AcDbRegAppTableRecord
  2
ACAD_DSTYLE_DIMRADIAL_EXTENSION
 70
     0
  0
APPID
  5
3C0C
330
9
100
AcDbSymbolTableRecord
100
AcDbRegAppTableRecord
  2
ACAD_NAV_VCDISPLAY
 70
     0
  0
ENDTAB
  0
TABLE
  2
DIMSTYLE
  5
A
330
0
100
AcDbSymbolTable
 70
    14
100
AcDbDimStyleTable
 71
     5
340
553
340
2780
340
557
340
15C9
340
552
  0
DIMSTYLE
105
552
330
A
100
AcDbSymbolTableRecord
100
AcDbDimStyleTableRecord
  2
4比1-S
 70
     0
 41
1.199999999999999
 42
0.5
 43
5.0
 44
0.5
 73
     0
 74
     0
 77
     1
 78
     8
 79
     2
140
2.0
141
0.0
144
0.25
147
0.5
172
     1
179
     1
271
     2
272
     2
288
     1
340
1C7D
1001
ACAD_DSTYLE_DIMJAG
1070
   388
1040
1.5
1001
ACAD_DSTYLE_DIMTALN
1070
   392
1070
     0
  0
DIMSTYLE
105
553
102
{ACAD_REACTORS
330
4184
330
419C
330
416C
102
}
330
A
100
AcDbSymbolTableRecord
100
AcDbDimStyleTableRecord
  2
1比1-S
 70
     0
 41
1.5
 42
0.5
 43
5.0
 44
0.5
 73
     0
 74
     0
 77
     1
 78
     8
 79
     2
140
2.0
141
0.0
147
0.5
172
     1
179
     1
271
     2
272
     2
288
     1
340
1C7D
1001
ACAD_DSTYLE_DIMJAG
1070
   388
1040
1.5
1001
ACAD_DSTYLE_DIMTALN
1070
   392
1070
     0
  0
DIMSTYLE
105
554
330
A
100
AcDbSymbolTableRecord
100
AcDbDimStyleTableRecord
  2
2比1-S
 70
     0
 41
1.5
 42
0.5
 43
5.0
 44
0.5
 73
     0
 74
     0
 77
     1
 78
     8
 79
     2
140
2.0
141
0.0
144
0.5
147
0.5
172
     1
179
     2
271
     1
272
     1
288
     1
340
1C7D
1001
ACAD_DSTYLE_DIMJAG
1070
   388
1040
1.5
1001
ACAD_DSTYLE_DIMTALN
1070
   392
1070
     0
  0
DIMSTYLE
105
555
330
A
100
AcDbSymbolTableRecord
100
AcDbDimStyleTableRecord
  2
2比1-H
 70
     0
 41
1.5
 42
0.5
 43
5.0
 44
0.5
 73
     0
 77
     1
 78
     8
 79
     2
140
2.0
141
0.0
144
0.5
147
0.5
179
     2
271
     2
272
     2
288
     1
340
1C7D
1001
ACAD_DSTYLE_DIMJAG
1070
   388
1040
1.5
1001
ACAD_DSTYLE_DIMTALN
1070
   392
1070
     0
  0
DIMSTYLE
105
556
330
A
100
AcDbSymbolTableRecord
100
AcDbDimStyleTableRecord
  2
4比1-H
 70
     0
 41
1.5
 42
0.5
 43
5.0
 44
0.5
 73
     0
 77
     1
 78
     8
 79
     2
140
2.0
141
0.0
144
0.25
147
0.5
179
     1
271
     2
272
     2
340
1C7D
1001
ACAD_DSTYLE_DIMJAG
1070
   388
1040
1.5
1001
ACAD_DSTYLE_DIMTALN
1070
   392
1070
     0
  0
DIMSTYLE
105
557
330
A
100
AcDbSymbolTableRecord
100
AcDbDimStyleTableRecord
  2
5比1-S
 70
     0
 41
1.5
 42
0.5
 43
5.0
 44
0.5
 73
     0
 74
     0
 77
     1
 78
     8
140
2.0
141
0.0
144
0.2
147
0.5
172
     1
271
     1
272
     1
288
     1
340
1C7D
1001
ACAD_DSTYLE_DIMJAG
1070
   388
1040
1.5
1001
ACAD_DSTYLE_DIMTALN
1070
   392
1070
     0
  0
DIMSTYLE
105
15C9
330
A
100
AcDbSymbolTableRecord
100
AcDbDimStyleTableRecord
  2
5比1-H
 70
     0
 41
1.5
 42
0.5
 43
5.0
 44
0.5
 73
     0
 77
     1
 78
     8
140
2.0
141
0.0
144
0.2
147
0.5
271
     2
272
     2
288
     1
340
1C7D
1001
ACAD_DSTYLE_DIMJAG
1070
   388
1040
1.5
1001
ACAD_DSTYLE_DIMTALN
1070
   392
1070
     0
  0
DIMSTYLE
105
15CB
330
A
100
AcDbSymbolTableRecord
100
AcDbDimStyleTableRecord
  2
10比1-H
 70
     0
 41
1.5
 42
0.5
 43
5.0
 44
0.5
 73
     0
 77
     1
 78
     8
140
2.0
141
0.0
144
0.1
147
0.5
172
     1
271
     1
272
     1
288
     1
340
1C7D
1001
ACAD_DSTYLE_DIMJAG
1070
   388
1040
1.5
1001
ACAD_DSTYLE_DIMTALN
1070
   392
1070
     0
  0
DIMSTYLE
105
15CC
330
A
100
AcDbSymbolTableRecord
100
AcDbDimStyleTableRecord
  2
10比1-S
 70
     0
 41
1.5
 42
0.5
 43
5.0
 44
0.5
 73
     0
 74
     0
 77
     1
 78
     8
 79
     2
140
2.5
141
0.0
144
0.1
147
0.5
172
     1
179
     2
271
     2
272
     2
288
     1
340
1C7D
1001
ACAD_DSTYLE_DIMJAG
1070
   388
1040
1.5
1001
ACAD_DSTYLE_DIMTALN
1070
   392
1070
     0
  0
DIMSTYLE
105
1779
330
A
100
AcDbSymbolTableRecord
100
AcDbDimStyleTableRecord
  2
1比1-H
 70
     0
 41
1.5
 42
0.5
 43
5.0
 44
0.5
 73
     0
 77
     1
 78
     8
 79
     2
140
2.0
141
0.0
147
0.5
179
     1
271
     2
272
     2
288
     1
340
1C7D
1001
ACAD_DSTYLE_DIMJAG
1070
   388
1040
1.5
1001
ACAD_DSTYLE_DIMTALN
1070
   392
1070
     0
  0
DIMSTYLE
105
2780
330
A
100
AcDbSymbolTableRecord
100
AcDbDimStyleTableRecord
  2
Standard
 70
     0
340
11
  0
DIMSTYLE
105
3DEF
330
A
100
AcDbSymbolTableRecord
100
AcDbDimStyleTableRecord
  2
ISO-25
 70
     0
 41
2.5
 42
0.625
 43
3.75
 44
1.25
 73
     0
 74
     0
 77
     1
 78
     8
140
2.5
141
2.5
143
0.03937007874016
147
0.625
171
     3
172
     1
271
     2
272
     2
274
     3
278
    44
283
     0
284
     8
340
11
  0
DIMSTYLE
105
41D6
330
A
100
AcDbSymbolTableRecord
100
AcDbDimStyleTableRecord
  2
0.5
 70
     0
 41
2.5
 42
0.0
 43
5.0
 44
1.25
 73
     0
 74
     0
 77
     1
140
3.5
141
-2.5
144
0.5
147
0.0
172
     1
271
     1
272
     1
288
     1
340
11
  0
ENDTAB
  0
TABLE
  2
BLOCK_RECORD
  5
1
330
0
100
AcDbSymbolTable
 70
     9
  0
BLOCK_RECORD
  5
1F
102
{ACAD_XDICTIONARY
360
1D76
102
}
330
1
100
AcDbSymbolTableRecord
100
AcDbBlockTableRecord
  2
*Model_Space
340
22
  0
BLOCK_RECORD
  5
50
330
1
100
AcDbSymbolTableRecord
100
AcDbBlockTableRecord
  2
*Paper_Space
340
51
  0
BLOCK_RECORD
  5
55
330
1
100
AcDbSymbolTableRecord
100
AcDbBlockTableRecord
  2
*Paper_Space0
340
56
  0
BLOCK_RECORD
  5
416D
330
1
100
AcDbSymbolTableRecord
100
AcDbBlockTableRecord
  2
*D2
340
0
  0
BLOCK_RECORD
  5
4185
330
1
100
AcDbSymbolTableRecord
100
AcDbBlockTableRecord
  2
*D3
340
0
  0
BLOCK_RECORD
  5
419D
330
1
100
AcDbSymbolTableRecord
100
AcDbBlockTableRecord
  2
*D4
340
0
  0
BLOCK_RECORD
  5
41CF
102
{ACAD_XDICTIONARY
360
41D1
102
}
330
1
100
AcDbSymbolTableRecord
100
AcDbBlockTableRecord
  2
A$C1C39012B
340
0
1001
ACAD
1000
DesignCenter Data
1002
{
1070
     1
1070
     4
1002
}
  0
ENDTAB
  0
ENDSEC
  0
SECTION
  2
BLOCKS
  0
BLOCK
  5
20
330
1F
100
AcDbEntity
  8
0
100
AcDbBlockBegin
  2
*Model_Space
 70
     0
 10
0.0
 20
0.0
 30
0.0
  3
*Model_Space
  1

  0
ENDBLK
  5
21
330
1F
100
AcDbEntity
  8
0
100
AcDbBlockEnd
  0
BLOCK
  5
52
330
50
100
AcDbEntity
 67
     1
  8
0
100
AcDbBlockBegin
  2
*Paper_Space
 70
     0
 10
0.0
 20
0.0
 30
0.0
  3
*Paper_Space
  1

  0
ENDBLK
  5
53
330
50
100
AcDbEntity
 67
     1
  8
0
100
AcDbBlockEnd
  0
BLOCK
  5
57
330
55
100
AcDbEntity
 67
     1
  8
0
100
AcDbBlockBegin
  2
*Paper_Space0
 70
     0
 10
0.0
 20
0.0
 30
0.0
  3
*Paper_Space0
  1

  0
ENDBLK
  5
58
330
55
100
AcDbEntity
 67
     1
  8
0
100
AcDbBlockEnd
  0
BLOCK
  5
4177
330
416D
100
AcDbEntity
  8
0
100
AcDbBlockBegin
  2
*D2
 70
     1
 10
0.0
 20
0.0
 30
0.0
  3
*D2
  1

  0
LINE
  5
41BD
330
416D
100
AcDbEntity
  8
尺寸标注层
 62
     0
370
    -2
100
AcDbLine
 10
200.4069028574938
 20
92.54599935278758
 30
0.0
 11
200.4069028574938
 21
88.12406768673701
 31
0.0
  0
LINE
  5
41BE
330
416D
100
AcDbEntity
  8
尺寸标注层
 62
     0
370
    -2
100
AcDbLine
 10
190.9069028574938
 20
92.54599935278758
 30
0.0
 11
190.9069028574938
 21
88.12406768673701
 31
0.0
  0
LINE
  5
41BF
330
416D
100
AcDbEntity
  8
尺寸标注层
 62
     0
370
    -2
100
AcDbLine
 10
198.9069028574937
 20
88.62406768673702
 30
0.0
 11
192.4069028574938
 21
88.62406768673702
 31
0.0
  0
SOLID
  5
41C0
330
416D
100
AcDbEntity
  8
尺寸标注层
 62
     0
100
AcDbTrace
 10
198.9069028574937
 20
88.87406768673702
 30
0.0
 11
198.9069028574937
 21
88.37406768673702
 31
0.0
 12
200.4069028574938
 22
88.62406768673702
 32
0.0
 13
200.4069028574938
 23
88.62406768673702
 33
0.0
  0
SOLID
  5
41C1
330
416D
100
AcDbEntity
  8
尺寸标注层
 62
     0
100
AcDbTrace
 10
192.4069028574938
 20
88.87406768673702
 30
0.0
 11
192.4069028574938
 21
88.37406768673702
 31
0.0
 12
190.9069028574938
 22
88.62406768673702
 32
0.0
 13
190.9069028574938
 23
88.62406768673702
 33
0.0
  0
MTEXT
  5
41C2
330
416D
100
AcDbEntity
  8
尺寸标注层
 62
     0
100
AcDbMText
 10
195.6353150975165
 20
90.12406768673702
 30
0.0
 40
2.0
 41
0.0
 71
     5
 72
     1
  1
\A1;9.5
  7
尺寸标注用文字
 73
     1
 44
1.0
  0
POINT
  5
41C3
330
416D
100
AcDbEntity
  8
Defpoints
 62
     0
100
AcDbPoint
 10
200.4069028574938
 20
93.04599935278757
 30
0.0
  0
POINT
  5
41C4
330
416D
100
AcDbEntity
  8
Defpoints
 62
     0
100
AcDbPoint
 10
190.9069028574938
 20
93.04599935278757
 30
0.0
  0
POINT
  5
41C5
330
416D
100
AcDbEntity
  8
Defpoints
 62
     0
100
AcDbPoint
 10
190.9069028574938
 20
88.62406768673702
 30
0.0
  0
ENDBLK
  5
4178
330
416D
100
AcDbEntity
  8
0
100
AcDbBlockEnd
  0
BLOCK
  5
418F
330
4185
100
AcDbEntity
  8
0
100
AcDbBlockBegin
  2
*D3
 70
     1
 10
0.0
 20
0.0
 30
0.0
  3
*D3
  1

  0
LINE
  5
4192
330
4185
100
AcDbEntity
  8
尺寸标注层
 62
     0
370
    -2
100
AcDbLine
 10
153.7371176287937
 20
137.5459993527876
 30
0.0
 11
153.7371176287937
 21
143.5575957528031
 31
0.0
  0
LINE
  5
4193
330
4185
100
AcDbEntity
  8
尺寸标注层
 62
     0
370
    -2
100
AcDbLine
 10
109.3371176287937
 20
137.5459993527876
 30
0.0
 11
109.3371176287937
 21
143.5575957528031
 31
0.0
  0
LINE
  5
4194
330
4185
100
AcDbEntity
  8
尺寸标注层
 62
     0
370
    -2
100
AcDbLine
 10
152.2371176287937
 20
143.0575957528031
 30
0.0
 11
110.8371176287937
 21
143.0575957528031
 31
0.0
  0
SOLID
  5
4195
330
4185
100
AcDbEntity
  8
尺寸标注层
 62
     0
100
AcDbTrace
 10
152.2371176287937
 20
143.307595752803
 30
0.0
 11
152.2371176287937
 21
142.8075957528031
 31
0.0
 12
153.7371176287937
 22
143.0575957528031
 32
0.0
 13
153.7371176287937
 23
143.0575957528031
 33
0.0
  0
SOLID
  5
4196
330
4185
100
AcDbEntity
  8
尺寸标注层
 62
     0
100
AcDbTrace
 10
110.8371176287937
 20
143.307595752803
 30
0.0
 11
110.8371176287937
 21
142.8075957528031
 31
0.0
 12
109.3371176287937
 22
143.0575957528031
 32
0.0
 13
109.3371176287937
 23
143.0575957528031
 33
0.0
  0
MTEXT
  5
4197
330
4185
100
AcDbEntity
  8
尺寸标注层
 62
     0
100
AcDbMText
 10
130.122123941029
 20
144.5575957528031
 30
0.0
 40
2.0
 41
0.0
 71
     5
 72
     1
  1
\A1;44.4
  7
尺寸标注用文字
 73
     1
 44
1.0
  0
POINT
  5
4198
330
4185
100
AcDbEntity
  8
Defpoints
 62
     0
100
AcDbPoint
 10
153.7371176287937
 20
137.0459993527876
 30
0.0
  0
POINT
  5
4199
330
4185
100
AcDbEntity
  8
Defpoints
 62
     0
100
AcDbPoint
 10
109.3371176287937
 20
137.0459993527876
 30
0.0
  0
POINT
  5
419A
330
4185
100
AcDbEntity
  8
Defpoints
 62
     0
100
AcDbPoint
 10
109.3371176287937
 20
143.0575957528031
 30
0.0
  0
ENDBLK
  5
4190
330
4185
100
AcDbEntity
  8
0
100
AcDbBlockEnd
  0
BLOCK
  5
41A7
330
419D
100
AcDbEntity
  8
0
100
AcDbBlockBegin
  2
*D4
 70
     1
 10
0.0
 20
0.0
 30
0.0
  3
*D4
  1

  0
LINE
  5
41C6
330
419D
100
AcDbEntity
  8
尺寸标注层
 62
     0
370
    -2
100
AcDbLine
 10
152.2371176287937
 20
139.0459993527876
 30
0.0
 11
157.415364569433
 21
139.0459993527876
 31
0.0
  0
LINE
  5
41C7
330
419D
100
AcDbEntity
  8
尺寸标注层
 62
     0
370
    -2
100
AcDbLine
 10
151.0083989208937
 20
93.04599935278757
 30
0.0
 11
157.415364569433
 21
93.04599935278757
 31
0.0
  0
LINE
  5
41C8
330
419D
100
AcDbEntity
  8
尺寸标注层
 62
     0
370
    -2
100
AcDbLine
 10
156.915364569433
 20
137.5459993527876
 30
0.0
 11
156.915364569433
 21
94.54599935278757
 31
0.0
  0
SOLID
  5
41C9
330
419D
100
AcDbEntity
  8
尺寸标注层
 62
     0
100
AcDbTrace
 10
156.665364569433
 20
137.5459993527876
 30
0.0
 11
157.165364569433
 21
137.5459993527876
 31
0.0
 12
156.915364569433
 22
139.0459993527876
 32
0.0
 13
156.915364569433
 23
139.0459993527876
 33
0.0
  0
SOLID
  5
41CA
330
419D
100
AcDbEntity
  8
尺寸标注层
 62
     0
100
AcDbTrace
 10
156.665364569433
 20
94.54599935278757
 30
0.0
 11
157.165364569433
 21
94.54599935278757
 31
0.0
 12
156.915364569433
 22
93.04599935278757
 32
0.0
 13
156.915364569433
 23
93.04599935278757
 33
0.0
  0
MTEXT
  5
41CB
330
419D
100
AcDbEntity
  8
尺寸标注层
 62
     0
100
AcDbMText
 10
155.415364569433
 20
116.0459993527876
 30
0.0
 40
2.0
 41
0.0
 71
     5
 72
     1
  1
\A1;46
  7
尺寸标注用文字
 11
0.0000000000000001
 21
1.0
 31
0.0
 73
     1
 44
1.0
  0
POINT
  5
41CC
330
419D
100
AcDbEntity
  8
Defpoints
 62
     0
100
AcDbPoint
 10
151.7371176287937
 20
139.0459993527876
 30
0.0
  0
POINT
  5
41CD
330
419D
100
AcDbEntity
  8
Defpoints
 62
     0
100
AcDbPoint
 10
150.5083989208938
 20
93.04599935278757
 30
0.0
  0
POINT
  5
41CE
330
419D
100
AcDbEntity
  8
Defpoints
 62
     0
100
AcDbPoint
 10
156.915364569433
 20
93.04599935278757
 30
0.0
  0
ENDBLK
  5
41A8
330
419D
100
AcDbEntity
  8
0
100
AcDbBlockEnd
  0
BLOCK
  5
41D3
330
41CF
100
AcDbEntity
  8
0
100
AcDbBlockBegin
  2
A$C1C39012B
 70
     0
 10
0.0
 20
0.0
 30
0.0
  3
A$C1C39012B
  1

  0
TEXT
  5
41D0
330
41CF
100
AcDbEntity
  8
文字标准层
100
AcDbText
 10
0.5531337716446388
 20
0.9630827582265339
 30
0.0
 40
3.535659730379073
  1
XXX.XXX.XXX
  7
宋体
100
AcDbText
1001
ACAD
1000
ACAD_MTEXT_DEFINED_HEIGHT_BEGIN
1070
    46
1040
10.82739725101047
1000
ACAD_MTEXT_DEFINED_HEIGHT_END
  0
ENDBLK
  5
41D4
330
41CF
100
AcDbEntity
  8
0
100
AcDbBlockEnd
  0
ENDSEC
  0
SECTION
  2
ENTITIES
  0
LINE
  5
2470
330
1F
100
AcDbEntity
  8
细实线层
  6
Continuous
100
AcDbLine
 10
0.0
 20
210.0181879845169
 30
0.0
 11
0.0
 21
0.0
 31
0.0
  0
LINE
  5
2471
330
1F
100
AcDbEntity
  8
细实线层
  6
Continuous
100
AcDbLine
 10
296.9954173518422
 20
210.0181879845169
 30
0.0
 11
0.0
 21
210.0181879845169
 31
0.0
  0
LINE
  5
2472
330
1F
100
AcDbEntity
  8
轮廓线层
370
    15
100
AcDbLine
 10
293.4597576214632
 20
206.482528254138
 30
0.0
 11
3.535659730379165
 21
206.482528254138
 31
0.0
  0
LINE
  5
2473
330
1F
100
AcDbEntity
  8
细实线层
  6
Continuous
100
AcDbLine
 10
0.0
 20
0.0
 30
0.0
 11
296.9954173518422
 21
0.0
 31
0.0
  0
LINE
  5
2474
330
1F
100
AcDbEntity
  8
轮廓线层
370
    15
100
AcDbLine
 10
3.535659730379165
 20
3.53565973037908
 30
0.0
 11
293.4597576214632
 21
3.53565973037908
 31
0.0
  0
LINE
  5
2475
330
1F
100
AcDbEntity
  8
细实线层
  6
Continuous
100
AcDbLine
 10
251.0318408569143
 20
16.26403475974373
 30
0.0
 11
208.6039240923654
 21
16.26403475974373
 31
0.0
  0
LINE
  5
2476
330
1F
100
AcDbEntity
  8
轮廓线层
370
    15
100
AcDbLine
 10
293.4597576214632
 20
35.35659730379072
 30
0.0
 11
166.1760073278164
 21
35.35659730379072
 31
0.0
  0
LINE
  5
2477
330
1F
100
AcDbEntity
  8
细实线层
  6
Continuous
100
AcDbLine
 10
208.6039240923654
 20
3.53565973037908
 30
0.0
 11
208.6039240923654
 21
35.35659730379072
 31
0.0
  0
LINE
  5
2478
330
1F
100
AcDbEntity
  8
细实线层
  6
Continuous
100
AcDbLine
 10
197.9969449012282
 20
3.53565973037908
 30
0.0
 11
197.9969449012282
 21
17.67829865189534
 31
0.0
  0
LINE
  5
2479
330
1F
100
AcDbEntity
  8
细实线层
  6
Continuous
100
AcDbLine
 10
176.7829865189537
 20
3.53565973037908
 30
0.0
 11
176.7829865189537
 21
17.67829865189534
 31
0.0
  0
LINE
  5
247A
330
1F
100
AcDbEntity
  8
细实线层
  6
Continuous
100
AcDbLine
 10
187.3899657100909
 20
3.53565973037908
 30
0.0
 11
187.3899657100909
 21
17.67829865189534
 31
0.0
  0
LINE
  5
247B
330
1F
100
AcDbEntity
  8
细实线层
  6
Continuous
100
AcDbLine
 10
201.5326046316072
 20
17.67829865189534
 30
0.0
 11
201.5326046316072
 21
35.35659730379072
 31
0.0
  0
LINE
  5
247C
330
1F
100
AcDbEntity
  8
细实线层
  6
Continuous
100
AcDbLine
 10
177.4901184650294
 20
17.67829865189534
 30
0.0
 11
177.4901184650294
 21
35.35659730379072
 31
0.0
  0
LINE
  5
247D
330
1F
100
AcDbEntity
  8
细实线层
  6
Continuous
100
AcDbLine
 10
171.833062896423
 20
17.67829865189534
 30
0.0
 11
171.833062896423
 21
35.35659730379072
 31
0.0
  0
LINE
  5
247E
330
1F
100
AcDbEntity
  8
细实线层
  6
Continuous
100
AcDbLine
 10
191.6327573865458
 20
17.67829865189534
 30
0.0
 11
191.6327573865458
 21
35.35659730379072
 31
0.0
  0
LINE
  5
247F
330
1F
100
AcDbEntity
  8
细实线层
  6
Continuous
100
AcDbLine
 10
208.6039240923654
 20
14.14263892151629
 30
0.0
 11
166.1760073278164
 21
14.14263892151629
 31
0.0
  0
LINE
  5
2480
330
1F
100
AcDbEntity
  8
细实线层
  6
Continuous
100
AcDbLine
 10
208.6039240923654
 20
17.67829865189534
 30
0.0
 11
166.1760073278164
 21
17.67829865189534
 31
0.0
  0
LINE
  5
2481
330
1F
100
AcDbEntity
  8
细实线层
  6
Continuous
100
AcDbLine
 10
208.6039240923654
 20
7.071319460758161
 30
0.0
 11
166.1760073278164
 21
7.071319460758161
 31
0.0
  0
LINE
  5
2482
330
1F
100
AcDbEntity
  8
细实线层
  6
Continuous
100
AcDbLine
 10
208.6039240923654
 20
10.60697919113724
 30
0.0
 11
166.1760073278164
 21
10.60697919113724
 31
0.0
  0
LINE
  5
2483
330
1F
100
AcDbEntity
  8
细实线层
  6
Continuous
100
AcDbLine
 10
208.6039240923654
 20
21.2139583822744
 30
0.0
 11
166.1760073278164
 21
21.2139583822744
 31
0.0
  0
LINE
  5
2484
330
1F
100
AcDbEntity
  8
细实线层
  6
Continuous
100
AcDbLine
 10
208.6039240923654
 20
24.74961811265351
 30
0.0
 11
166.1760073278164
 21
24.74961811265351
 31
0.0
  0
LINE
  5
2485
330
1F
100
AcDbEntity
  8
细实线层
  6
Continuous
100
AcDbLine
 10
208.6039240923654
 20
28.28527784303256
 30
0.0
 11
166.1760073278164
 21
28.28527784303256
 31
0.0
  0
LINE
  5
2486
330
1F
100
AcDbEntity
  8
细实线层
  6
Continuous
100
AcDbLine
 10
166.1760073278164
 20
31.82093757341161
 30
0.0
 11
208.6039240923654
 21
31.82093757341161
 31
0.0
  0
LINE
  5
2487
330
1F
100
AcDbEntity
  8
细实线层
  6
Continuous
100
AcDbLine
 10
296.9954173518422
 20
0.0
 30
0.0
 11
296.9954173518422
 21
210.0181879845169
 31
0.0
  0
LINE
  5
2488
330
1F
100
AcDbEntity
  8
轮廓线层
370
    15
100
AcDbLine
 10
293.4597576214632
 20
3.53565973037908
 30
0.0
 11
293.4597576214632
 21
206.482528254138
 31
0.0
  0
LINE
  5
2489
330
1F
100
AcDbEntity
  8
细实线层
  6
Continuous
100
AcDbLine
 10
251.0318408569143
 20
3.53565973037908
 30
0.0
 11
251.0318408569143
 21
35.35659730379072
 31
0.0
  0
LINE
  5
248A
330
1F
100
AcDbEntity
  8
细实线层
  6
Continuous
100
AcDbLine
 10
293.4597576214632
 20
12.72837502936466
 30
0.0
 11
251.0318408569143
 21
12.72837502936466
 31
0.0
  0
LINE
  5
248B
330
1F
100
AcDbEntity
  8
细实线层
  6
Continuous
100
AcDbLine
 10
293.4597576214632
 20
16.26403475974373
 30
0.0
 11
251.0318408569143
 21
16.26403475974373
 31
0.0
  0
LINE
  5
248C
330
1F
100
AcDbEntity
  8
细实线层
  6
Continuous
100
AcDbLine
 10
293.4597576214632
 20
21.92109032835023
 30
0.0
 11
251.0318408569143
 21
21.92109032835023
 31
0.0
  0
LINE
  5
248D
330
1F
100
AcDbEntity
  8
细实线层
  6
Continuous
100
AcDbLine
 10
293.4597576214632
 20
25.45675005872928
 30
0.0
 11
251.0318408569143
 21
25.45675005872928
 31
0.0
  0
LINE
  5
248E
330
1F
100
AcDbEntity
  8
细实线层
  6
Continuous
100
AcDbLine
 10
268.0030075627338
 20
25.45675005872928
 30
0.0
 11
268.0030075627338
 21
16.26403475974373
 31
0.0
  0
LINE
  5
248F
330
1F
100
AcDbEntity
  8
细实线层
  6
Continuous
100
AcDbLine
 10
288.252272229423
 20
16.26403475974373
 30
0.0
 11
288.252272229423
 21
25.45675005872928
 31
0.0
  0
LINE
  5
2490
330
1F
100
AcDbEntity
  8
细实线层
  6
Continuous
100
AcDbLine
 10
279.4553380698799
 20
25.45675005872928
 30
0.0
 11
279.4553380698799
 21
16.26403475974373
 31
0.0
  0
LINE
  5
2491
330
1F
100
AcDbEntity
  8
细实线层
  6
Continuous
100
AcDbLine
 10
262.3459519941273
 20
21.92109032835023
 30
0.0
 11
262.3459519941273
 21
16.26403475974373
 31
0.0
  0
LINE
  5
2492
330
1F
100
AcDbEntity
  8
细实线层
  6
Continuous
100
AcDbLine
 10
256.6888964255209
 20
16.26403475974373
 30
0.0
 11
256.6888964255209
 21
21.92109032835023
 31
0.0
  0
LINE
  5
2493
330
1F
100
AcDbEntity
  8
细实线层
  6
Continuous
100
AcDbLine
 10
272.2457992391886
 20
12.72837502936466
 30
0.0
 11
272.2457992391886
 21
16.26403475974373
 31
0.0
  0
LINE
  5
2494
330
1F
100
AcDbEntity
  8
轮廓线层
370
    15
100
AcDbLine
 10
3.535659730379165
 20
197.9969449012281
 30
0.0
 11
45.96357649492808
 21
197.9969449012281
 31
0.0
  0
LINE
  5
2495
330
1F
100
AcDbEntity
  8
轮廓线层
370
    15
100
AcDbLine
 10
45.96357649492808
 20
197.9969449012281
 30
0.0
 11
45.96357649492808
 21
206.482528254138
 31
0.0
  0
LINE
  5
2496
330
1F
100
AcDbEntity
  8
轮廓线层
370
    15
100
AcDbLine
 10
3.535659730379165
 20
3.53565973037908
 30
0.0
 11
3.535659730379165
 21
206.482528254138
 31
0.0
  0
LINE
  5
2497
330
1F
100
AcDbEntity
  8
轮廓线层
370
    15
100
AcDbLine
 10
166.1760073278164
 20
35.35659730379072
 30
0.0
 11
166.1760073278164
 21
3.53565973037908
 31
0.0
  0
TEXT
  5
2498
330
1F
100
AcDbEntity
  8
文字标准层
100
AcDbText
 10
166.410279886817
 20
18.53335360275341
 30
0.0
 40
1.797116924719701
  1
标记
  7
宋体
 72
     1
 11
168.9661795130851
 21
18.53335360275341
 31
0.0
100
AcDbText
1001
ACAD
1000
ACAD_MTEXT_DEFINED_HEIGHT_BEGIN
1070
    46
1040
3.961674739929264
1000
ACAD_MTEXT_DEFINED_HEIGHT_END
  0
TEXT
  5
2499
330
1F
100
AcDbEntity
  8
文字标准层
100
AcDbText
 10
172.0935953225221
 20
18.5620211140808
 30
0.0
 40
1.797116924719701
  1
处数
  7
宋体
 72
     1
 11
174.6494949487901
 21
18.5620211140808
 31
0.0
100
AcDbText
1001
ACAD
1000
ACAD_MTEXT_DEFINED_HEIGHT_BEGIN
1070
    46
1040
3.961674739929264
1000
ACAD_MTEXT_DEFINED_HEIGHT_END
  0
TEXT
  5
249A
330
1F
100
AcDbEntity
  8
文字标准层
100
AcDbText
 10
178.0040739966614
 20
18.53335360275341
 30
0.0
 40
1.797116924719701
  1
更改文件号
  7
宋体
 72
     1
 11
184.3938230623315
 21
18.53335360275341
 31
0.0
100
AcDbText
1001
ACAD
1000
ACAD_MTEXT_DEFINED_HEIGHT_BEGIN
1070
    46
1040
3.961674739929264
1000
ACAD_MTEXT_DEFINED_HEIGHT_END
  0
TEXT
  5
249B
330
1F
100
AcDbEntity
  8
文字标准层
100
AcDbText
 10
192.7651373272257
 20
18.5620211140808
 30
0.0
 40
1.797116924719701
  1
签  字
  7
宋体
 72
     1
 11
196.5989867666277
 21
18.5620211140808
 31
0.0
100
AcDbText
1001
ACAD
1000
ACAD_MTEXT_DEFINED_HEIGHT_BEGIN
1070
    46
1040
3.961674739929264
1000
ACAD_MTEXT_DEFINED_HEIGHT_END
  0
TEXT
  5
249C
330
1F
100
AcDbEntity
  8
文字标准层
100
AcDbText
 10
201.9021616636027
 20
18.53335360275341
 30
0.0
 40
1.797116924719701
  1
日 期
  7
宋体
 72
     1
 11
205.0970361964378
 21
18.53335360275341
 31
0.0
100
AcDbText
1001
ACAD
1000
ACAD_MTEXT_DEFINED_HEIGHT_BEGIN
1070
    46
1040
3.961674739929264
1000
ACAD_MTEXT_DEFINED_HEIGHT_END
  0
TEXT
  5
249D
330
1F
100
AcDbEntity
  8
文字标准层
100
AcDbText
 10
167.502164343778
 20
15.04119437575863
 30
0.0
 40
1.797116924719701
  1
设  计
  7
宋体
 72
     1
 11
171.33601378318
 21
15.04119437575863
 31
0.0
100
AcDbText
1001
ACAD
1000
ACAD_MTEXT_DEFINED_HEIGHT_BEGIN
1070
    46
1040
3.84440673393982
1000
ACAD_MTEXT_DEFINED_HEIGHT_END
  0
TEXT
  5
249E
330
1F
100
AcDbEntity
  8
文字标准层
100
AcDbText
 10
167.502164343778
 20
4.462882695948792
 30
0.0
 40
1.797116924719701
  1
工  艺
  7
宋体
 72
     1
 11
171.33601378318
 21
4.462882695948792
 31
0.0
100
AcDbText
1001
ACAD
1000
ACAD_MTEXT_DEFINED_HEIGHT_BEGIN
1070
    46
1040
3.84440673393982
1000
ACAD_MTEXT_DEFINED_HEIGHT_END
  0
TEXT
  5
249F
330
1F
100
AcDbEntity
  8
文字标准层
100
AcDbText
 10
167.502164343778
 20
7.941207403673075
 30
0.0
 40
1.797116924719701
  1
审  核
  7
宋体
 72
     1
 11
171.33601378318
 21
7.941207403673075
 31
0.0
100
AcDbText
1001
ACAD
1000
ACAD_MTEXT_DEFINED_HEIGHT_BEGIN
1070
    46
1040
3.84440673393982
1000
ACAD_MTEXT_DEFINED_HEIGHT_END
  0
TEXT
  5
24A0
330
1F
100
AcDbEntity
  8
文字标准层
100
AcDbText
 10
167.502164343778
 20
11.46731129694302
 30
0.0
 40
1.797116924719701
  1
校  对
  7
宋体
 72
     1
 11
171.33601378318
 21
11.46731129694302
 31
0.0
100
AcDbText
1001
ACAD
1000
ACAD_MTEXT_DEFINED_HEIGHT_BEGIN
1070
    46
1040
3.84440673393982
1000
ACAD_MTEXT_DEFINED_HEIGHT_END
  0
TEXT
  5
24A1
330
1F
100
AcDbEntity
  8
文字标准层
100
AcDbText
 10
188.8600984702566
 20
14.98385935310384
 30
0.0
 40
1.797116924719701
  1
标准化
  7
宋体
 72
     1
 11
192.6939479096586
 21
14.98385935310384
 31
0.0
100
AcDbText
1001
ACAD
1000
ACAD_MTEXT_DEFINED_HEIGHT_BEGIN
1070
    46
1040
3.84440673393982
1000
ACAD_MTEXT_DEFINED_HEIGHT_END
  0
TEXT
  5
24A2
330
1F
100
AcDbEntity
  8
文字标准层
100
AcDbText
 10
188.6452417639264
 20
11.47686713405215
 30
0.0
 40
1.797116924719701
  1
审  定
  7
宋体
 72
     1
 11
192.4790912033285
 21
11.47686713405215
 31
0.0
100
AcDbText
1001
ACAD
1000
ACAD_MTEXT_DEFINED_HEIGHT_BEGIN
1070
    46
1040
3.84440673393982
1000
ACAD_MTEXT_DEFINED_HEIGHT_END
  0
TEXT
  5
24A3
330
1F
100
AcDbEntity
  8
文字标准层
100
AcDbText
 10
188.6452417639264
 20
7.922095729454781
 30
0.0
 40
1.797116924719701
  1
批  准
  7
宋体
 72
     1
 11
192.4790912033285
 21
7.922095729454781
 31
0.0
100
AcDbText
1001
ACAD
1000
ACAD_MTEXT_DEFINED_HEIGHT_BEGIN
1070
    46
1040
3.84440673393982
1000
ACAD_MTEXT_DEFINED_HEIGHT_END
  0
TEXT
  5
24A4
330
1F
100
AcDbEntity
  8
文字标准层
100
AcDbText
 10
188.6355265520526
 20
4.376880161966596
 30
0.0
 40
1.797116924719701
  1
日  期
  7
宋体
 72
     1
 11
192.4693759914546
 21
4.376880161966596
 31
0.0
100
AcDbText
1001
ACAD
1000
ACAD_MTEXT_DEFINED_HEIGHT_BEGIN
1070
    46
1040
3.84440673393982
1000
ACAD_MTEXT_DEFINED_HEIGHT_END
  0
TEXT
  5
24A5
330
1F
100
AcDbEntity
  8
文字标准层
100
AcDbText
 10
252.7175516293185
 20
22.72079457370583
 30
0.0
 40
1.797116924719701
  1
图 样 标 记
  7
宋体
 72
     1
 11
259.7462756015556
 21
22.72079457370583
 31
0.0
100
AcDbText
1001
ACAD
1000
ACAD_MTEXT_DEFINED_HEIGHT_BEGIN
1070
    46
1040
3.657051484491091
1000
ACAD_MTEXT_DEFINED_HEIGHT_END
  0
TEXT
  5
24A6
330
1F
100
AcDbEntity
  8
文字标准层
100
AcDbText
 10
252.9156304883028
 20
17.28595694083586
 30
0.0
 40
3.456517159161229
  1
S
  7
宋体
 72
     1
 11
254.1446143671156
 21
17.28595694083586
 31
0.0
100
AcDbText
1001
ACAD
1000
ACAD_MTEXT_DEFINED_HEIGHT_BEGIN
1070
    46
1040
5.750929563048991
1000
ACAD_MTEXT_DEFINED_HEIGHT_END
  0
TEXT
  5
24A7
330
1F
100
AcDbEntity
  8
文字标准层
100
AcDbText
 10
254.5884271449243
 20
13.43106927853338
 30
0.0
 40
1.797116924719701
  1
共        张
  7
宋体
 72
     1
 11
262.2561260237284
 21
13.43106927853338
 31
0.0
100
AcDbText
1001
ACAD
1000
ACAD_MTEXT_DEFINED_HEIGHT_BEGIN
1070
    46
1040
3.657051484491091
1000
ACAD_MTEXT_DEFINED_HEIGHT_END
  0
TEXT
  5
24A8
330
1F
100
AcDbEntity
  8
文字标准层
100
AcDbText
 10
275.5237699591189
 20
13.43106927853338
 30
0.0
 40
1.797116924719701
  1
第        张
  7
宋体
 72
     1
 11
283.1914688379229
 21
13.43106927853338
 31
0.0
100
AcDbText
1001
ACAD
1000
ACAD_MTEXT_DEFINED_HEIGHT_BEGIN
1070
    46
1040
3.657051484491091
1000
ACAD_MTEXT_DEFINED_HEIGHT_END
  0
TEXT
  5
24A9
330
1F
100
AcDbEntity
  8
文字标准层
100
AcDbText
 10
269.9103191866312
 20
22.76619756770393
 30
0.0
 40
1.797116924719701
  1
重量(g)
  7
宋体
100
AcDbText
1001
ACAD
1000
ACAD_MTEXT_DEFINED_HEIGHT_BEGIN
1070
    46
1040
3.559311874420387
1000
ACAD_MTEXT_DEFINED_HEIGHT_END
  0
TEXT
  5
24AA
330
1F
100
AcDbEntity
  8
文字标准层
100
AcDbText
 10
280.9872854956907
 20
22.75655641826526
 30
0.0
 40
1.797116924719701
  1
比 例
  7
宋体
100
AcDbText
1001
ACAD
1000
ACAD_MTEXT_DEFINED_HEIGHT_BEGIN
1070
    46
1040
3.559311874420387
1000
ACAD_MTEXT_DEFINED_HEIGHT_END
  0
TEXT
  5
24AB
330
1F
100
AcDbEntity
  8
文字标准层
100
AcDbText
 10
281.5926544911284
 20
17.73729778420838
 30
0.0
 40
2.474961811265351
  1
1:1
  7
宋体
 72
     1
 11
284.2326137564782
 21
17.73729778420838
 31
0.0
100
AcDbText
1001
ACAD
1000
ACAD_MTEXT_DEFINED_HEIGHT_BEGIN
1070
    46
1040
3.559311874420387
1000
ACAD_MTEXT_DEFINED_HEIGHT_END
  0
TEXT
  5
24AD
330
1F
100
AcDbEntity
  8
文字标准层
100
AcDbText
 10
288.3425637851789
 20
22.75655641826526
 30
0.0
 40
1.797116924719701
  1
版本
  7
宋体
100
AcDbText
1001
ACAD
1000
ACAD_MTEXT_DEFINED_HEIGHT_BEGIN
1070
    46
1040
3.559311874420387
1000
ACAD_MTEXT_DEFINED_HEIGHT_END
  0
TEXT
  5
24AE
330
1F
100
AcDbEntity
  8
文字标准层
100
AcDbText
 10
290.062294759611
 20
17.73729778420838
 30
0.0
 40
2.474961811265351
  1
1
  7
宋体
 72
     1
 11
290.9422811813943
 21
17.73729778420838
 31
0.0
100
AcDbText
1001
ACAD
1000
ACAD_MTEXT_DEFINED_HEIGHT_BEGIN
1070
    46
1040
3.559311874420387
1000
ACAD_MTEXT_DEFINED_HEIGHT_END
  0
TEXT
  5
24AF
330
1F
100
AcDbEntity
  8
文字标准层
 62
     4
370
    -3
100
AcDbText
 10
251.9044042944604
 20
6.37859976518564
 30
0.0
 40
2.474961811265351
  1
上海友邦电气(集团)股份有限公司
 41
0.7818743936473155
  7
宋体
 72
     5
 11
293.1867352914387
 21
6.37859976518564
 31
0.0
100
AcDbText
1001
ACAD
1000
ACAD_MTEXT_DEFINED_HEIGHT_BEGIN
1070
    46
1040
10.82739725101047
1000
ACAD_MTEXT_DEFINED_HEIGHT_END
  0
TEXT
  5
24B0
330
1F
100
AcDbEntity
  8
文字标准层
100
AcDbText
 10
257.1740713056657
 20
28.22906647018536
 30
0.0
 40
3.535659730379073
  1
5YB.585.130
  7
宋体
100
AcDbText
1001
ACAD
1000
ACAD_MTEXT_DEFINED_HEIGHT_BEGIN
1070
    46
1040
10.82739725101047
1000
ACAD_MTEXT_DEFINED_HEIGHT_END
  0
TEXT
  5
24B1
330
1F
100
AcDbEntity
  8
尺寸标注层
100
AcDbText
 10
40.14239469756392
 20
203.8695226341945
 30
0.0
 40
3.535659730379073
  1
5YB.585.130
 50
180.0
  7
宋体
100
AcDbText
  0
TEXT
  5
24B2
330
1F
100
AcDbEntity
  8
文字标准层
100
AcDbText
 10
221.058501280341
 20
25.07950194631255
 30
0.0
 40
4.242791676454888
  1
标记座
  7
宋体
 72
     1
 11
230.1097901901114
 21
25.07950194631255
 31
0.0
100
AcDbText
1001
ACAD
1000
ACAD_MTEXT_DEFINED_HEIGHT_BEGIN
1070
    46
1040
10.82739725101047
1000
ACAD_MTEXT_DEFINED_HEIGHT_END
  0
TEXT
  5
24B3
330
1F
100
AcDbEntity
  8
文字标准层
100
AcDbText
 10
227.8370383506639
 20
19.7739228829964
 30
0.0
 40
3.182093757341166
  1
B1
  7
宋体
 72
     1
 11
230.0998605781065
 21
19.7739228829964
 31
0.0
100
AcDbText
1001
ACAD
1000
ACAD_MTEXT_DEFINED_HEIGHT_BEGIN
1070
    46
1040
10.82739725101047
1000
ACAD_MTEXT_DEFINED_HEIGHT_END
  0
TEXT
  5
24B4
330
1F
100
AcDbEntity
  8
文字标准层
100
AcDbText
 10
261.4375766018774
 20
13.1885612077925
 30
0.0
 40
1.797116924719701
  1
1
  7
宋体
 72
     1
 11
262.0765515084443
 21
13.1885612077925
 31
0.0
100
AcDbText
1001
ACAD
1000
ACAD_MTEXT_DEFINED_HEIGHT_BEGIN
1070
    46
1040
3.559311874420387
1000
ACAD_MTEXT_DEFINED_HEIGHT_END
  0
TEXT
  5
24B5
330
1F
100
AcDbEntity
  8
文字标准层
100
AcDbText
 10
283.0098347968917
 20
13.1885612077925
 30
0.0
 40
1.797116924719701
  1
1
  7
宋体
 72
     1
 11
283.6488097034587
 21
13.1885612077925
 31
0.0
100
AcDbText
1001
ACAD
1000
ACAD_MTEXT_DEFINED_HEIGHT_BEGIN
1070
    46
1040
3.559311874420387
1000
ACAD_MTEXT_DEFINED_HEIGHT_END
  0
TEXT
  5
24B6
330
1F
100
AcDbEntity
  8
签字
100
AcDbText
 10
179.8313727052656
 20
15.04119437575863
 30
0.0
 40
1.797116924719701
  1
何霖
  7
宋体
 72
     1
 11
182.3872723315336
 21
15.04119437575863
 31
0.0
100
AcDbText
1001
ACAD
1000
ACAD_MTEXT_DEFINED_HEIGHT_BEGIN
1070
    46
1040
3.84440673393982
1000
ACAD_MTEXT_DEFINED_HEIGHT_END
  0
TEXT
  5
24B7
330
1F
100
AcDbEntity
  8
签字
100
AcDbText
 10
198.2089820163949
 20
4.376880161966596
 30
0.0
 40
1.797116924719701
  1
20201028
  7
宋体
 72
     1
 11
203.320781268931
 21
4.376880161966596
 31
0.0
100
AcDbText
1001
ACAD
1000
ACAD_MTEXT_DEFINED_HEIGHT_BEGIN
1070
    46
1040
3.84440673393982
1000
ACAD_MTEXT_DEFINED_HEIGHT_END
  0
TEXT
  5
389B
330
1F
100
AcDbEntity
  8
签字
100
AcDbText
 10
178.5534228921316
 20
11.50553464537958
 30
0.0
 40
1.797116924719701
  1
肖厚群
  7
宋体
 72
     1
 11
182.3872723315336
 21
11.50553464537958
 31
0.0
100
AcDbText
1001
ACAD
1000
ACAD_MTEXT_DEFINED_HEIGHT_BEGIN
1070
    46
1040
3.84440673393982
1000
ACAD_MTEXT_DEFINED_HEIGHT_END
  0
TEXT
  5
389C
330
1F
100
AcDbEntity
  8
签字
100
AcDbText
 10
178.5534228921316
 20
7.969874915000503
 30
0.0
 40
1.797116924719701
  1
蒋文利
  7
宋体
 72
     1
 11
182.3872723315336
 21
7.969874915000503
 31
0.0
100
AcDbText
1001
ACAD
1000
ACAD_MTEXT_DEFINED_HEIGHT_BEGIN
1070
    46
1040
3.84440673393982
1000
ACAD_MTEXT_DEFINED_HEIGHT_END
  0
TEXT
  5
389D
330
1F
100
AcDbEntity
  8
签字
100
AcDbText
 10
199.7673812744061
 20
15.04119437575863
 30
0.0
 40
1.797116924719701
  1
张明宇
  7
宋体
 72
     1
 11
203.6012307138081
 21
15.04119437575863
 31
0.0
100
AcDbText
1001
ACAD
1000
ACAD_MTEXT_DEFINED_HEIGHT_BEGIN
1070
    46
1040
3.84440673393982
1000
ACAD_MTEXT_DEFINED_HEIGHT_END
  0
TEXT
  5
389E
330
1F
100
AcDbEntity
  8
签字
100
AcDbText
 10
199.7673812744061
 20
7.969874915000502
 30
0.0
 40
1.797116924719701
  1
赵建余
  7
宋体
 72
     1
 11
203.6012307138081
 21
7.969874915000502
 31
0.0
100
AcDbText
1001
ACAD
1000
ACAD_MTEXT_DEFINED_HEIGHT_BEGIN
1070
    46
1040
3.84440673393982
1000
ACAD_MTEXT_DEFINED_HEIGHT_END
  0
LINE
  5
40DC
330
1F
100
AcDbEntity
  8
轮廓线层
370
    15
100
AcDbLine
 10
113.2371176287938
 20
138.2459993527876
 30
0.0
 11
111.5371176287937
 21
137.5459993527876
 31
0.0
  0
LINE
  5
40DD
330
1F
100
AcDbEntity
  8
轮廓线层
370
    15
100
AcDbLine
 10
110.7743743379937
 20
93.66963450398758
 30
0.0
 11
110.5577030310938
 21
94.20299939818759
 31
0.0
  0
LINE
  5
40DE
330
1F
100
AcDbEntity
  8
轮廓线层
370
    15
100
AcDbLine
 10
109.3371176287937
 20
136.5459993527876
 30
0.0
 11
109.3371176287937
 21
137.0459993527876
 31
0.0
  0
LINE
  5
40DF
330
1F
100
AcDbEntity
  8
轮廓线层
370
    15
100
AcDbLine
 10
110.3371176287937
 20
95.33209394438758
 30
0.0
 11
110.3371176287937
 21
96.84599935278757
 31
0.0
  0
LINE
  5
40E0
330
1F
100
AcDbEntity
  8
轮廓线层
370
    15
100
AcDbLine
 10
148.1147633422937
 20
97.1471892166876
 30
0.0
 11
148.7371176287937
 21
97.31394854518757
 31
0.0
  0
LINE
  5
40E1
330
1F
100
AcDbEntity
  8
轮廓线层
370
    15
100
AcDbLine
 10
143.0371176287937
 20
93.04599935278757
 30
0.0
 11
142.1750059494937
 21
93.04599935278757
 31
0.0
  0
LINE
  5
40E2
330
1F
100
AcDbEntity
  8
轮廓线层
370
    15
100
AcDbLine
 10
112.4503662828937
 20
93.04599935278757
 30
0.0
 11
111.7008458704937
 21
93.04599935278757
 31
0.0
  0
LINE
  5
40E3
330
1F
100
AcDbEntity
  8
轮廓线层
370
    15
100
AcDbLine
 10
143.0371176287937
 20
94.54599935278757
 30
0.0
 11
143.7371176287937
 21
94.54599935278757
 31
0.0
  0
LINE
  5
40E4
330
1F
100
AcDbEntity
  8
轮廓线层
370
    15
100
AcDbLine
 10
114.3371176287937
 20
97.31394854518757
 30
0.0
 11
114.9603078837937
 21
97.15980225078759
 31
0.0
  0
LINE
  5
40E5
330
1F
100
AcDbEntity
  8
轮廓线层
370
    15
100
AcDbLine
 10
111.9211772680937
 20
97.00490335508758
 30
0.0
 11
112.2371176287938
 21
95.44599935278759
 31
0.0
  0
LINE
  5
40E6
330
1F
100
AcDbEntity
  8
轮廓线层
370
    15
100
AcDbLine
 10
111.5371176287937
 20
136.0459993527876
 30
0.0
 11
111.5371176287937
 21
137.5459993527876
 31
0.0
  0
LINE
  5
40E7
330
1F
100
AcDbEntity
  8
轮廓线层
370
    15
100
AcDbLine
 10
112.2371176287938
 20
95.44599935278759
 30
0.0
 11
112.8371176287937
 21
95.44599935278759
 31
0.0
  0
LINE
  5
40E8
330
1F
100
AcDbEntity
  8
轮廓线层
370
    15
100
AcDbLine
 10
144.0371176287937
 20
96.09599935278758
 30
0.0
 11
143.0371176287937
 21
96.09599935278758
 31
0.0
  0
LINE
  5
40E9
330
1F
100
AcDbEntity
  8
轮廓线层
370
    15
100
AcDbLine
 10
112.8371176287937
 20
95.44599935278759
 30
0.0
 11
112.8371176287937
 21
98.60655849888757
 31
0.0
  0
LINE
  5
40EA
330
1F
100
AcDbEntity
  8
轮廓线层
370
    15
100
AcDbLine
 10
113.2371176287938
 20
138.2459993527876
 30
0.0
 11
113.2371176287938
 21
139.0459993527876
 31
0.0
  0
LINE
  5
40EB
330
1F
100
AcDbEntity
  8
轮廓线层
370
    15
100
AcDbLine
 10
113.7371176287937
 20
100.3276318569876
 30
0.0
 11
113.7371176287937
 21
107.0399695112876
 31
0.0
  0
LINE
  5
40EC
330
1F
100
AcDbEntity
  8
轮廓线层
370
    15
100
AcDbLine
 10
114.3371176287937
 20
98.31394854518757
 30
0.0
 11
114.3371176287937
 21
97.31394854518757
 31
0.0
  0
LINE
  5
40ED
330
1F
100
AcDbEntity
  8
轮廓线层
370
    15
100
AcDbLine
 10
142.6204441872938
 20
97.54599935278758
 30
0.0
 11
144.0371176287937
 21
97.54599935278758
 31
0.0
  0
LINE
  5
40EE
330
1F
100
AcDbEntity
  8
轮廓线层
370
    15
100
AcDbLine
 10
127.1371176287937
 20
98.14599935278756
 30
0.0
 11
127.0371176287937
 21
98.14599935278756
 31
0.0
  0
LINE
  5
40EF
330
1F
100
AcDbEntity
  8
轮廓线层
370
    15
100
AcDbLine
 10
115.3371176287937
 20
106.9016355132876
 30
0.0
 11
115.3371176287937
 21
98.79605252398759
 31
0.0
  0
LINE
  5
40F0
330
1F
100
AcDbEntity
  8
轮廓线层
370
    15
100
AcDbLine
 10
125.2622643778937
 20
100.3383780498876
 30
0.0
 11
126.0371176287937
 21
100.5459993527876
 31
0.0
  0
LINE
  5
40F1
330
1F
100
AcDbEntity
  8
轮廓线层
370
    15
100
AcDbLine
 10
115.1091225622937
 20
98.50482187728758
 30
0.0
 11
114.3371176287937
 21
98.31394854518757
 31
0.0
  0
LINE
  5
40F2
330
1F
100
AcDbEntity
  8
轮廓线层
370
    15
100
AcDbLine
 10
126.0371176287937
 20
102.0459993527875
 30
0.0
 11
124.9371176287937
 21
102.0459993527875
 31
0.0
  0
LINE
  5
40F3
330
1F
100
AcDbEntity
  8
轮廓线层
370
    15
100
AcDbLine
 10
148.7371176287937
 20
98.31394854518757
 30
0.0
 11
147.9129379797937
 21
98.52427070838757
 31
0.0
  0
LINE
  5
40F4
330
1F
100
AcDbEntity
  8
轮廓线层
370
    15
100
AcDbLine
 10
145.7121176287937
 20
136.5459993527876
 30
0.0
 11
149.8371176287937
 21
139.0459993527876
 31
0.0
  0
LINE
  5
40F5
330
1F
100
AcDbEntity
  8
轮廓线层
370
    15
100
AcDbLine
 10
124.4371176287937
 20
102.5459993527876
 30
0.0
 11
124.4371176287937
 21
109.5459993527875
 31
0.0
  0
LINE
  5
40F6
330
1F
100
AcDbEntity
  8
轮廓线层
370
    15
100
AcDbLine
 10
124.4371176287937
 20
108.0459993527876
 30
0.0
 11
116.4383911657937
 21
108.0459993527876
 31
0.0
  0
LINE
  5
40F7
330
1F
100
AcDbEntity
  8
轮廓线层
370
    15
100
AcDbLine
 10
126.0371176287937
 20
100.5459993527876
 30
0.0
 11
126.0371176287937
 21
102.0459993527875
 31
0.0
  0
LINE
  5
40F8
330
1F
100
AcDbEntity
  8
轮廓线层
370
    15
100
AcDbLine
 10
126.0371176287937
 20
103.8055911469875
 30
0.0
 11
126.0371176287937
 21
109.5459993527875
 31
0.0
  0
LINE
  5
40F9
330
1F
100
AcDbEntity
  8
轮廓线层
370
    15
100
AcDbLine
 10
115.1480813080937
 20
96.71857884078759
 30
0.0
 11
113.3163916866938
 21
93.54599935278757
 31
0.0
  0
LINE
  5
40FA
330
1F
100
AcDbEntity
  8
轮廓线层
370
    15
100
AcDbLine
 10
144.0851858749938
 20
110.5459993527875
 30
0.0
 11
139.2242672897938
 21
110.5459993527875
 31
0.0
  0
LINE
  5
40FB
330
1F
100
AcDbEntity
  8
轮廓线层
370
    15
100
AcDbLine
 10
135.3990974734937
 20
110.5459993527875
 30
0.0
 11
127.0371176287937
 21
110.5459993527875
 31
0.0
  0
LINE
  5
40FC
330
1F
100
AcDbEntity
  8
轮廓线层
370
    15
100
AcDbLine
 10
123.4371176287937
 20
110.5459993527875
 30
0.0
 11
118.9890493826937
 21
110.5459993527875
 31
0.0
  0
LINE
  5
40FD
330
1F
100
AcDbEntity
  8
轮廓线层
370
    15
100
AcDbLine
 10
145.3863527078937
 20
112.0459993527876
 30
0.0
 11
117.6878825496938
 21
112.0459993527876
 31
0.0
  0
LINE
  5
40FE
330
1F
100
AcDbEntity
  8
轮廓线层
370
    15
100
AcDbLine
 10
127.6371176287937
 20
98.64599935278757
 30
0.0
 11
127.6371176287937
 21
101.8459993527875
 31
0.0
  0
LINE
  5
40FF
330
1F
100
AcDbEntity
  8
轮廓线层
370
    15
100
AcDbLine
 10
132.5528737611938
 20
110.1500531749876
 30
0.0
 11
130.6679284380938
 21
101.2908101564875
 31
0.0
  0
LINE
  5
4100
330
1F
100
AcDbEntity
  8
轮廓线层
370
    15
100
AcDbLine
 10
141.2239494332937
 20
93.73698235838757
 30
0.0
 11
135.8746257315937
 21
110.2005078498876
 31
0.0
  0
LINE
  5
4101
330
1F
100
AcDbEntity
  8
轮廓线层
370
    15
100
AcDbLine
 10
147.6871176287938
 20
100.0459993527875
 30
0.0
 11
140.3349384775937
 21
110.5459993527875
 31
0.0
  0
LINE
  5
4102
330
1F
100
AcDbEntity
  8
轮廓线层
370
    15
100
AcDbLine
 10
149.8155785978937
 20
93.44599935268758
 30
0.0
 11
147.9326014346938
 21
96.70741146888758
 31
0.0
  0
LINE
  5
4103
330
1F
100
AcDbEntity
  8
轮廓线层
370
    15
100
AcDbLine
 10
138.2687710029937
 20
109.2509962241876
 30
0.0
 11
141.6649479004937
 21
98.25099622408759
 31
0.0
  0
LINE
  5
4104
330
1F
100
AcDbEntity
  8
轮廓线层
370
    15
100
AcDbLine
 10
142.1661003606937
 20
110.5459993527875
 30
0.0
 11
147.6871176287938
 21
102.6611695461876
 31
0.0
  0
LINE
  5
4105
330
1F
100
AcDbEntity
  8
轮廓线层
370
    15
100
AcDbLine
 10
150.3371176287938
 20
95.74266725308758
 30
0.0
 11
151.2012192438938
 21
94.24599935278758
 31
0.0
  0
LINE
  5
4106
330
1F
100
AcDbEntity
  8
轮廓线层
370
    15
100
AcDbLine
 10
130.5324288641938
 20
101.0413105880876
 30
0.0
 11
127.9300108475938
 21
98.43889257158759
 31
0.0
  0
LINE
  5
4107
330
1F
100
AcDbEntity
  8
轮廓线层
370
    15
100
AcDbLine
 10
113.2371176287938
 20
139.0459993527876
 30
0.0
 11
117.3621176287938
 21
136.5459993527876
 31
0.0
  0
LINE
  5
4108
330
1F
100
AcDbEntity
  8
轮廓线层
370
    15
100
AcDbLine
 10
143.0371176287937
 20
96.09599935278758
 30
0.0
 11
143.0371176287937
 21
94.54599935278757
 31
0.0
  0
LINE
  5
4109
330
1F
100
AcDbEntity
  8
轮廓线层
370
    15
100
AcDbLine
 10
144.0371176287937
 20
94.24599935278758
 30
0.0
 11
144.0371176287937
 21
94.04599935278758
 31
0.0
  0
LINE
  5
410A
330
1F
100
AcDbEntity
  8
轮廓线层
370
    15
100
AcDbLine
 10
144.5371176287937
 20
97.04599935278757
 30
0.0
 11
144.5371176287937
 21
96.59599935278757
 31
0.0
  0
LINE
  5
410B
330
1F
100
AcDbEntity
  8
轮廓线层
370
    15
100
AcDbLine
 10
147.6871176287938
 20
98.81495503828759
 30
0.0
 11
147.6871176287938
 21
106.9402000394876
 31
0.0
  0
LINE
  5
410C
330
1F
100
AcDbEntity
  8
轮廓线层
370
    15
100
AcDbLine
 10
148.7371176287937
 20
97.31394854518757
 30
0.0
 11
148.7371176287937
 21
98.31394854518757
 31
0.0
  0
LINE
  5
410D
330
1F
100
AcDbEntity
  8
轮廓线层
370
    15
100
AcDbLine
 10
149.2871176287937
 20
107.4843792320876
 30
0.0
 11
149.2871176287937
 21
100.5665300894875
 31
0.0
  0
LINE
  5
410E
330
1F
100
AcDbEntity
  8
轮廓线层
370
    15
100
AcDbLine
 10
149.8371176287937
 20
139.0459993527876
 30
0.0
 11
149.8371176287937
 21
138.2459993527876
 31
0.0
  0
LINE
  5
410F
330
1F
100
AcDbEntity
  8
轮廓线层
370
    15
100
AcDbLine
 10
150.3371176287938
 20
98.80655849888759
 30
0.0
 11
150.3371176287938
 21
95.74266725308758
 31
0.0
  0
LINE
  5
4110
330
1F
100
AcDbEntity
  8
轮廓线层
370
    15
100
AcDbLine
 10
111.5529124730938
 20
134.4459993527875
 30
0.0
 11
115.7737056648938
 21
134.4459993527875
 31
0.0
  0
LINE
  5
4111
330
1F
100
AcDbEntity
  8
轮廓线层
370
    15
100
AcDbLine
 10
147.3005295926937
 20
134.4459993527875
 30
0.0
 11
151.5213227844937
 21
134.4459993527875
 31
0.0
  0
LINE
  5
4112
330
1F
100
AcDbEntity
  8
轮廓线层
370
    15
100
AcDbLine
 10
116.0737056648937
 20
134.5459993527876
 30
0.0
 11
147.0005295926937
 21
134.5459993527876
 31
0.0
  0
LINE
  5
4113
330
1F
100
AcDbEntity
  8
轮廓线层
370
    15
100
AcDbLine
 10
151.5371176287937
 20
137.5459993527876
 30
0.0
 11
151.5371176287937
 21
136.0459993527876
 31
0.0
  0
LINE
  5
4114
330
1F
100
AcDbEntity
  8
轮廓线层
370
    15
100
AcDbLine
 10
111.5371176287937
 20
136.0459993527876
 30
0.0
 11
125.7925549822937
 21
136.0459993527876
 31
0.0
  0
LINE
  5
4115
330
1F
100
AcDbEntity
  8
轮廓线层
370
    15
100
AcDbLine
 10
137.2816802752937
 20
136.0459993527876
 30
0.0
 11
151.5371176287937
 21
136.0459993527876
 31
0.0
  0
LINE
  5
4116
330
1F
100
AcDbEntity
  8
轮廓线层
370
    15
100
AcDbLine
 10
153.7371176287937
 20
137.0459993527876
 30
0.0
 11
153.7371176287937
 21
136.5459993527876
 31
0.0
  0
LINE
  5
4117
330
1F
100
AcDbEntity
  8
轮廓线层
370
    15
100
AcDbLine
 10
111.3371176287937
 20
139.0459993527876
 30
0.0
 11
113.2371176287938
 21
139.0459993527876
 31
0.0
  0
LINE
  5
4118
330
1F
100
AcDbEntity
  8
轮廓线层
370
    15
100
AcDbLine
 10
149.8371176287937
 20
139.0459993527876
 30
0.0
 11
151.7371176287937
 21
139.0459993527876
 31
0.0
  0
LINE
  5
4119
330
1F
100
AcDbEntity
  8
轮廓线层
370
    15
100
AcDbLine
 10
151.5371176287937
 20
137.5459993527876
 30
0.0
 11
149.8371176287937
 21
138.2459993527876
 31
0.0
  0
LINE
  5
411A
330
1F
100
AcDbEntity
  8
轮廓线层
370
    15
100
AcDbLine
 10
109.3371176287937
 20
64.52262945158757
 30
0.0
 11
109.3371176287937
 21
74.02262945158757
 31
0.0
  0
LINE
  5
411B
330
1F
100
AcDbEntity
  8
轮廓线层
370
    15
100
AcDbLine
 10
113.2371176287938
 20
64.52262945158757
 30
0.0
 11
113.2371176287938
 21
74.02262945158757
 31
0.0
  0
LINE
  5
411C
330
1F
100
AcDbEntity
  8
轮廓线层
370
    15
100
AcDbLine
 10
118.1871176287937
 20
73.02262945158758
 30
0.0
 11
118.1871176287937
 21
74.02262945158757
 31
0.0
  0
LINE
  5
411D
330
1F
100
AcDbEntity
  8
轮廓线层
370
    15
100
AcDbLine
 10
125.7925549822937
 20
64.52262945158757
 30
0.0
 11
125.7925549822937
 21
65.52262945158758
 31
0.0
  0
LINE
  5
411E
330
1F
100
AcDbEntity
  8
轮廓线层
370
    15
100
AcDbLine
 10
109.3371176287937
 20
64.52262945158757
 30
0.0
 11
153.7371176287937
 21
64.52262945158757
 31
0.0
  0
LINE
  5
411F
330
1F
100
AcDbEntity
  8
轮廓线层
370
    15
100
AcDbLine
 10
137.2816802752937
 20
65.52262945158758
 30
0.0
 11
125.7925549822937
 21
65.52262945158758
 31
0.0
  0
LINE
  5
4120
330
1F
100
AcDbEntity
  8
轮廓线层
370
    15
100
AcDbLine
 10
113.2371176287938
 20
73.02262945158758
 30
0.0
 11
118.1871176287937
 21
73.02262945158758
 31
0.0
  0
LINE
  5
4121
330
1F
100
AcDbEntity
  8
轮廓线层
370
    15
100
AcDbLine
 10
144.8871176287937
 20
73.02262945158758
 30
0.0
 11
149.8371176287937
 21
73.02262945158758
 31
0.0
  0
LINE
  5
4122
330
1F
100
AcDbEntity
  8
轮廓线层
370
    15
100
AcDbLine
 10
137.2816802752937
 20
65.52262945158758
 30
0.0
 11
137.2816802752937
 21
64.52262945158757
 31
0.0
  0
LINE
  5
4123
330
1F
100
AcDbEntity
  8
轮廓线层
370
    15
100
AcDbLine
 10
109.3371176287937
 20
74.02262945158757
 30
0.0
 11
153.7371176287937
 21
74.02262945158757
 31
0.0
  0
LINE
  5
4124
330
1F
100
AcDbEntity
  8
轮廓线层
370
    15
100
AcDbLine
 10
144.8871176287937
 20
73.02262945158758
 30
0.0
 11
144.8871176287937
 21
74.02262945158757
 31
0.0
  0
LINE
  5
4125
330
1F
100
AcDbEntity
  8
轮廓线层
370
    15
100
AcDbLine
 10
149.8371176287937
 20
64.52262945158757
 30
0.0
 11
149.8371176287937
 21
74.02262945158757
 31
0.0
  0
LINE
  5
4126
330
1F
100
AcDbEntity
  8
轮廓线层
370
    15
100
AcDbLine
 10
153.7371176287937
 20
74.02262945158757
 30
0.0
 11
153.7371176287937
 21
64.52262945158757
 31
0.0
  0
LINE
  5
4127
102
{ACAD_REACTORS
330
4183
102
}
330
1F
100
AcDbEntity
  8
轮廓线层
370
    15
100
AcDbLine
 10
200.4069028574938
 20
93.04599935278757
 30
0.0
 11
190.9069028574938
 21
93.04599935278757
 31
0.0
  0
LINE
  5
4128
330
1F
100
AcDbEntity
  8
轮廓线层
370
    15
100
AcDbLine
 10
190.9069028574938
 20
97.64599935278758
 30
0.0
 11
200.4069028574938
 21
97.64599935278758
 31
0.0
  0
LINE
  5
4129
330
1F
100
AcDbEntity
  8
轮廓线层
370
    15
100
AcDbLine
 10
200.4069028574938
 20
98.60655849888757
 30
0.0
 11
190.9069028574938
 21
98.60655849888757
 31
0.0
  0
LINE
  5
412A
330
1F
100
AcDbEntity
  8
轮廓线层
370
    15
100
AcDbLine
 10
190.9069028574938
 20
93.04599935278757
 30
0.0
 11
190.9069028574938
 21
112.0459993527876
 31
0.0
  0
LINE
  5
412B
330
1F
100
AcDbEntity
  8
轮廓线层
370
    15
100
AcDbLine
 10
190.9069028574938
 20
134.4459993527875
 30
0.0
 11
190.9069028574938
 21
139.0459993527876
 31
0.0
  0
LINE
  5
412C
330
1F
100
AcDbEntity
  8
轮廓线层
370
    15
100
AcDbLine
 10
193.1569028574937
 20
128.1263870228875
 30
0.0
 11
193.1569028574937
 21
118.3656116825875
 31
0.0
  0
LINE
  5
412D
330
1F
100
AcDbEntity
  8
轮廓线层
370
    15
100
AcDbLine
 10
198.1569028574938
 20
118.3656116825875
 30
0.0
 11
198.1569028574938
 21
128.1263870228875
 31
0.0
  0
LINE
  5
412E
330
1F
100
AcDbEntity
  8
轮廓线层
370
    15
100
AcDbLine
 10
200.4069028574938
 20
93.04599935278757
 30
0.0
 11
200.4069028574938
 21
112.0459993527876
 31
0.0
  0
LINE
  5
412F
330
1F
100
AcDbEntity
  8
轮廓线层
370
    15
100
AcDbLine
 10
200.4069028574938
 20
134.4459993527875
 30
0.0
 11
200.4069028574938
 21
139.0459993527876
 31
0.0
  0
LINE
  5
4130
330
1F
100
AcDbEntity
  8
轮廓线层
370
    15
100
AcDbLine
 10
200.4069028574938
 20
134.5459993527876
 30
0.0
 11
190.9069028574938
 21
134.5459993527876
 31
0.0
  0
LINE
  5
4131
330
1F
100
AcDbEntity
  8
轮廓线层
370
    15
100
AcDbLine
 10
190.9069028574938
 20
139.0459993527876
 30
0.0
 11
200.4069028574938
 21
139.0459993527876
 31
0.0
  0
ARC
  5
4132
330
1F
100
AcDbEntity
  8
轮廓线层
370
    15
100
AcDbCircle
 10
113.3371176287937
 20
95.33209394438758
 30
0.0
 40
3.0
100
AcDbArc
 50
180.0
 51
202.1086939659998
  0
ARC
  5
4133
330
1F
100
AcDbEntity
  8
轮廓线层
370
    15
100
AcDbCircle
 10
115.7371176287937
 20
107.0399695112876
 30
0.0
 40
2.0
100
AcDbArc
 50
128.3111957573003
 51
180.0
  0
ARC
  5
4134
330
1F
100
AcDbEntity
  8
轮廓线层
370
    15
100
AcDbCircle
 10
127.0371176287937
 20
100.1459993527875
 30
0.0
 40
2.0
100
AcDbArc
 50
183.2844777236004
 51
270.0
  0
ARC
  5
4135
330
1F
100
AcDbEntity
  8
轮廓线层
370
    15
100
AcDbCircle
 10
126.1371176287937
 20
101.8459993527875
 30
0.0
 40
1.5
100
AcDbArc
 50
0.0
 51
78.46304096689938
  0
ARC
  5
4136
330
1F
100
AcDbEntity
  8
轮廓线层
370
    15
100
AcDbCircle
 10
114.2475794448937
 20
98.70243112318759
 30
0.0
 40
1.4137164124
100
AcDbArc
 50
121.8711114616004
 51
183.8885563624999
  0
ARC
  5
4137
330
1F
100
AcDbEntity
  8
轮廓线层
370
    15
100
AcDbCircle
 10
127.0371176287937
 20
109.5459993527875
 30
0.0
 40
1.0
100
AcDbArc
 50
90.0
 51
180.0000000001001
  0
ARC
  5
4138
330
1F
100
AcDbEntity
  8
轮廓线层
370
    15
100
AcDbCircle
 10
127.2229040663937
 20
99.14599935278758
 30
0.0
 40
1.0
100
AcDbArc
 50
270.0
 51
315.0000000010991
  0
ARC
  5
4139
330
1F
100
AcDbEntity
  8
轮廓线层
370
    15
100
AcDbCircle
 10
123.4371176287937
 20
109.5459993527875
 30
0.0
 40
1.0
100
AcDbArc
 50
0.0
 51
90.0
  0
ARC
  5
413A
330
1F
100
AcDbEntity
  8
轮廓线层
370
    15
100
AcDbCircle
 10
112.4503662828937
 20
94.04599935278758
 30
0.0
 40
1.0
100
AcDbArc
 50
270.0
 51
330.0000000022998
  0
ARC
  5
413B
330
1F
100
AcDbEntity
  8
轮廓线层
370
    15
100
AcDbCircle
 10
111.7008458704937
 20
94.04599935278758
 30
0.0
 40
1.0
100
AcDbArc
 50
202.1086939666002
 51
270.0
  0
ARC
  5
413C
330
1F
100
AcDbEntity
  8
轮廓线层
370
    15
100
AcDbCircle
 10
111.1371176287937
 20
96.84599935278757
 30
0.0
 40
0.8
100
AcDbArc
 50
11.45685676120038
 51
180.0
  0
ARC
  5
413D
330
1F
100
AcDbEntity
  8
轮廓线层
370
    15
100
AcDbCircle
 10
120.4284873160937
 20
112.5459993527875
 30
0.0
 40
0.5
100
AcDbArc
 50
152.3734111532998
 51
270.0
  0
ARC
  5
413E
330
1F
100
AcDbEntity
  8
轮廓线层
370
    15
100
AcDbCircle
 10
130.1788754735937
 20
101.3948639787876
 30
0.0
 40
0.5
100
AcDbArc
 50
314.9999999953993
 51
347.9885216128005
  0
ARC
  5
413F
330
1F
100
AcDbEntity
  8
轮廓线层
370
    15
100
AcDbCircle
 10
113.2371176287938
 20
100.3276318569876
 30
0.0
 40
0.5
100
AcDbArc
 50
301.8711114471002
 51
0.0
  0
ARC
  5
4140
330
1F
100
AcDbEntity
  8
轮廓线层
370
    15
100
AcDbCircle
 10
126.5371176287937
 20
103.8055911469875
 30
0.0
 40
0.5
100
AcDbArc
 50
179.9999999998998
 51
258.4630409680992
  0
ARC
  5
4141
330
1F
100
AcDbEntity
  8
轮廓线层
370
    15
100
AcDbCircle
 10
127.1371176287937
 20
98.64599935278757
 30
0.0
 40
0.5
100
AcDbArc
 50
270.0
 51
0.0
  0
ARC
  5
4142
330
1F
100
AcDbEntity
  8
轮廓线层
370
    15
100
AcDbCircle
 10
124.9371176287937
 20
102.5459993527876
 30
0.0
 40
0.5
100
AcDbArc
 50
180.0
 51
270.0
  0
ARC
  5
4143
330
1F
100
AcDbEntity
  8
轮廓线层
370
    15
100
AcDbCircle
 10
118.9890493826937
 20
110.0459993527876
 30
0.0
 40
0.5
100
AcDbArc
 50
90.0
 51
142.3241675160996
  0
ARC
  5
4144
330
1F
100
AcDbEntity
  8
轮廓线层
370
    15
100
AcDbCircle
 10
115.8371176287937
 20
106.9016355132876
 30
0.0
 40
0.5
100
AcDbArc
 50
127.5380977332999
 51
180.0
  0
ARC
  5
4145
330
1F
100
AcDbEntity
  8
轮廓线层
370
    15
100
AcDbCircle
 10
125.3399100913937
 20
100.0486003019876
 30
0.0
 40
0.3
100
AcDbArc
 50
104.9999999993993
 51
183.2844777230997
  0
ARC
  5
4146
330
1F
100
AcDbEntity
  8
轮廓线层
370
    15
100
AcDbCircle
 10
115.0371176287937
 20
98.79605252398759
 30
0.0
 40
0.3
100
AcDbArc
 50
283.8875109646002
 51
0.0
  0
ARC
  5
4147
330
1F
100
AcDbEntity
  8
轮廓线层
370
    15
100
AcDbCircle
 10
114.8882736869937
 20
96.86857884088757
 30
0.0
 40
0.3
100
AcDbArc
 50
329.9999999945
 51
76.10673179990064
  0
ARC
  5
4148
330
1F
100
AcDbEntity
  8
轮廓线层
370
    15
100
AcDbCircle
 10
105.0122876717938
 20
120.6145053188875
 30
0.0
 40
16.9
100
AcDbArc
 50
332.3734111535999
 51
50.52706326759933
  0
ARC
  5
4149
330
1F
100
AcDbEntity
  8
轮廓线层
370
    15
100
AcDbCircle
 10
105.2964210517937
 20
120.6196424993876
 30
0.0
 40
16.8
100
AcDbArc
 50
307.5380977295994
 51
322.3241675220007
  0
ARC
  5
414A
330
1F
100
AcDbEntity
  8
轮廓线层
370
    15
100
AcDbCircle
 10
105.0122876717938
 20
120.6145053188875
 30
0.0
 40
15.3
100
AcDbArc
 50
308.3111957551
 51
65.58218438350097
  0
ARC
  5
414B
102
{ACAD_REACTORS
330
419B
102
}
330
1F
100
AcDbEntity
  8
轮廓线层
370
    15
100
AcDbCircle
 10
111.3371176287937
 20
137.0459993527876
 30
0.0
 40
2.0
100
AcDbArc
 50
90.0
 51
180.0
  0
ARC
  5
414C
330
1F
100
AcDbEntity
  8
轮廓线层
370
    15
100
AcDbCircle
 10
111.3371176287937
 20
136.5459993527876
 30
0.0
 40
2.0
100
AcDbArc
 50
180.0
 51
270.0000000002003
  0
ARC
  5
414D
330
1F
100
AcDbEntity
  8
轮廓线层
370
    15
100
AcDbCircle
 10
116.0737056648937
 20
134.0459993527876
 30
0.0
 40
0.5
100
AcDbArc
 50
90.0
 51
230.5270632680991
  0
ARC
  5
414E
330
1F
100
AcDbEntity
  8
轮廓线层
370
    15
100
AcDbCircle
 10
147.3371176287938
 20
107.0399695112876
 30
0.0
 40
2.0
100
AcDbArc
 50
12.83856814100029
 51
51.68880424219988
  0
ARC
  5
414F
330
1F
100
AcDbEntity
  8
轮廓线层
370
    15
100
AcDbCircle
 10
148.8371176287937
 20
98.80655849888759
 30
0.0
 40
1.5
100
AcDbArc
 50
0.0
 51
61.64064997170046
  0
ARC
  5
4150
330
1F
100
AcDbEntity
  8
轮廓线层
370
    15
100
AcDbCircle
 10
142.1750059494937
 20
94.04599935278758
 30
0.0
 40
1.0
100
AcDbArc
 50
197.9999999999997
 51
270.0
  0
ARC
  5
4151
330
1F
100
AcDbEntity
  8
轮廓线层
370
    15
100
AcDbCircle
 10
143.0371176287937
 20
94.04599935278758
 30
0.0
 40
1.0
100
AcDbArc
 50
270.0
 51
0.0
  0
ARC
  5
4152
330
1F
100
AcDbEntity
  8
轮廓线层
370
    15
100
AcDbCircle
 10
142.6204441872938
 20
98.54599935278757
 30
0.0
 40
1.0
100
AcDbArc
 50
197.1577249803997
 51
270.0
  0
ARC
  5
4153
330
1F
100
AcDbEntity
  8
轮廓线层
370
    15
100
AcDbCircle
 10
139.2242672897938
 20
109.5459993527875
 30
0.0
 40
1.0
100
AcDbArc
 50
90.0
 51
197.1577249755002
  0
ARC
  5
4154
102
{ACAD_REACTORS
330
41B3
102
}
330
1F
100
AcDbEntity
  8
轮廓线层
370
    15
100
AcDbCircle
 10
150.5083989208938
 20
93.84599935278757
 30
0.0
 40
0.8
100
AcDbArc
 50
210.0000000022002
 51
30.00000000160047
  0
ARC
  5
4155
330
1F
100
AcDbEntity
  8
轮廓线层
370
    15
100
AcDbCircle
 10
142.6457479414937
 20
112.5459993527875
 30
0.0
 40
0.5
100
AcDbArc
 50
270.0
 51
27.62658884670015
  0
ARC
  5
4156
330
1F
100
AcDbEntity
  8
轮廓线层
370
    15
100
AcDbCircle
 10
135.3990974734937
 20
110.0459993527876
 30
0.0
 40
0.5
100
AcDbArc
 50
18.0000000004998
 51
90.0
  0
ARC
  5
4157
330
1F
100
AcDbEntity
  8
轮廓线层
370
    15
100
AcDbCircle
 10
144.0371176287937
 20
96.59599935278757
 30
0.0
 40
0.5
100
AcDbArc
 50
270.0
 51
0.0
  0
ARC
  5
4158
330
1F
100
AcDbEntity
  8
轮廓线层
370
    15
100
AcDbCircle
 10
144.0371176287937
 20
97.04599935278757
 30
0.0
 40
0.5
100
AcDbArc
 50
0.0
 51
90.0
  0
ARC
  5
4159
330
1F
100
AcDbEntity
  8
轮廓线层
370
    15
100
AcDbCircle
 10
144.0851858749938
 20
110.0459993527876
 30
0.0
 40
0.5
100
AcDbArc
 50
37.6758324837994
 51
90.0
  0
ARC
  5
415A
330
1F
100
AcDbEntity
  8
轮廓线层
370
    15
100
AcDbCircle
 10
147.1871176287937
 20
106.9402000394876
 30
0.0
 40
0.5
100
AcDbArc
 50
0.0
 51
52.25277434769925
  0
ARC
  5
415B
330
1F
100
AcDbEntity
  8
轮廓线层
370
    15
100
AcDbCircle
 10
149.7871176287937
 20
100.5665300894875
 30
0.0
 40
0.5
100
AcDbArc
 50
180.0
 51
241.6406499721999
  0
ARC
  5
415C
330
1F
100
AcDbEntity
  8
轮廓线层
370
    15
100
AcDbCircle
 10
133.0419267256937
 20
110.0459993527876
 30
0.0
 40
0.5
100
AcDbArc
 50
90.0
 51
167.9885216134996
  0
ARC
  5
415D
330
1F
100
AcDbEntity
  8
轮廓线层
370
    15
100
AcDbCircle
 10
143.7371176287937
 20
94.24599935278758
 30
0.0
 40
0.3
100
AcDbArc
 50
0.0
 51
90.0
  0
ARC
  5
415E
330
1F
100
AcDbEntity
  8
轮廓线层
370
    15
100
AcDbCircle
 10
147.9871176287937
 20
98.81495503828759
 30
0.0
 40
0.3
100
AcDbArc
 50
180.0
 51
255.6842428330003
  0
ARC
  5
415F
330
1F
100
AcDbEntity
  8
轮廓线层
370
    15
100
AcDbCircle
 10
148.1924090558937
 20
96.85741146878758
 30
0.0
 40
0.3
100
AcDbArc
 50
105.0000000025991
 51
209.9999999958003
  0
ARC
  5
4160
330
1F
100
AcDbEntity
  8
轮廓线层
370
    15
100
AcDbCircle
 10
158.0619475857937
 20
120.6145053188875
 30
0.0
 40
16.9
100
AcDbArc
 50
129.4729367324007
 51
207.6265888464001
  0
ARC
  5
4161
330
1F
100
AcDbEntity
  8
轮廓线层
370
    15
100
AcDbCircle
 10
157.7778142057937
 20
120.6196424993876
 30
0.0
 40
16.8
100
AcDbArc
 50
217.6758324779993
 51
232.2527743513998
  0
ARC
  5
4162
330
1F
100
AcDbEntity
  8
轮廓线层
370
    15
100
AcDbCircle
 10
158.0619475857937
 20
120.6145053188875
 30
0.0
 40
15.3
100
AcDbArc
 50
114.417815616499
 51
231.6888042449992
  0
ARC
  5
4163
330
1F
100
AcDbEntity
  8
轮廓线层
370
    15
100
AcDbCircle
 10
131.5371176287937
 20
132.0459993527876
 30
0.0
 40
7.0
100
AcDbArc
 50
34.84990457899977
 51
145.1500954210002
  0
ARC
  5
4164
330
1F
100
AcDbEntity
  8
轮廓线层
370
    15
100
AcDbCircle
 10
151.7371176287937
 20
136.5459993527876
 30
0.0
 40
2.0
100
AcDbArc
 50
269.9999999997997
 51
0.0
  0
ARC
  5
4165
102
{ACAD_REACTORS
330
419B
330
41B3
102
}
330
1F
100
AcDbEntity
  8
轮廓线层
370
    15
100
AcDbCircle
 10
151.7371176287937
 20
137.0459993527876
 30
0.0
 40
2.0
100
AcDbArc
 50
0.0
 51
90.0
  0
ARC
  5
4166
330
1F
100
AcDbEntity
  8
轮廓线层
370
    15
100
AcDbCircle
 10
147.0005295926937
 20
134.0459993527876
 30
0.0
 40
0.5
100
AcDbArc
 50
309.4729367319009
 51
90.0
  0
ARC
  5
4167
330
1F
100
AcDbEntity
  8
轮廓线层
370
    15
100
AcDbCircle
 10
183.1569028574937
 20
118.3656116825875
 30
0.0
 40
10.0
100
AcDbArc
 50
320.8050325739997
 51
0.0
  0
ARC
  5
4168
330
1F
100
AcDbEntity
  8
轮廓线层
370
    15
100
AcDbCircle
 10
208.1569028574938
 20
118.3656116825875
 30
0.0
 40
10.0
100
AcDbArc
 50
180.0
 51
219.1949674260003
  0
ARC
  5
4169
330
1F
100
AcDbEntity
  8
轮廓线层
370
    15
100
AcDbCircle
 10
208.1569028574938
 20
128.1263870228875
 30
0.0
 40
10.0
100
AcDbArc
 50
140.8050325739997
 51
180.0
  0
ARC
  5
416A
330
1F
100
AcDbEntity
  8
轮廓线层
370
    15
100
AcDbCircle
 10
183.1569028574937
 20
128.1263870228875
 30
0.0
 40
10.0
100
AcDbArc
 50
0.0
 51
39.19496742600026
  0
DIMENSION
  5
416C
102
{ACAD_XDICTIONARY
360
4179
102
}
102
{ACAD_REACTORS
330
4183
102
}
330
1F
100
AcDbEntity
  8
尺寸标注层
100
AcDbDimension
  2
*D2
 10
190.9069028574938
 20
88.62406768673702
 30
0.0
 11
195.6353150975165
 21
88.62406768673702
 31
0.0
 70
   160
 71
     5
 42
9.5
  3
1比1-S
100
AcDbAlignedDimension
 13
200.4069028574938
 23
93.04599935278757
 33
0.0
 14
190.9069028574938
 24
93.04599935278757
 34
0.0
100
AcDbRotatedDimension
  0
DIMENSION
  5
4184
102
{ACAD_XDICTIONARY
360
4191
102
}
102
{ACAD_REACTORS
330
419B
102
}
330
1F
100
AcDbEntity
  8
尺寸标注层
100
AcDbDimension
  2
*D3
 10
109.3371176287937
 20
143.0575957528031
 30
0.0
 11
130.122123941029
 21
143.0575957528031
 31
0.0
 70
   160
 71
     5
 42
44.39999999999999
  3
1比1-S
100
AcDbAlignedDimension
 13
153.7371176287937
 23
137.0459993527876
 33
0.0
 14
109.3371176287937
 24
137.0459993527876
 34
0.0
100
AcDbRotatedDimension
  0
DIMENSION
  5
419C
102
{ACAD_XDICTIONARY
360
41A9
102
}
102
{ACAD_REACTORS
330
41B3
102
}
330
1F
100
AcDbEntity
  8
尺寸标注层
100
AcDbDimension
  2
*D4
 10
156.915364569433
 20
93.04599935278757
 30
0.0
 11
156.915364569433
 21
116.0459993527876
 31
0.0
 70
   160
 71
     5
 42
46.00000000000001
  3
1比1-S
100
AcDbAlignedDimension
 13
151.7371176287937
 23
139.0459993527876
 33
0.0
 14
150.5083989208938
 24
93.04599935278757
 34
0.0
 50
90.0
100
AcDbRotatedDimension
  0
TEXT
  5
42E8
330
1F
100
AcDbEntity
  8
文字标准层
100
AcDbText
 10
130.7731589743424
 20
117.149394562923
 30
0.0
 40
3.0
  1
B1
  7
黑体
100
AcDbText
  0
HATCH
  5
432F
330
1F
100
AcDbEntity
  8
文字标准层
100
AcDbHatch
 10
0.0
 20
0.0
 30
0.0
210
0.0
220
0.0
230
1.0
  2
SOLID
 70
     1
 71
     0
 91
        2
 92
        7
 72
     1
 73
     1
 93
       12
 10
132.3450147914859
 20
130.0972527322345
 42
0.0
 10
131.4662343075237
 20
130.0972527322345
 42
0.0
 10
130.8329987175004
 20
127.7872323048929
 42
0.4115698355392973
 10
131.3385556723094
 20
127.0917122455915
 42
0.0
 10
132.9310861593641
 20
127.0917122455915
 42
0.2092256844604964
 10
133.2524496392178
 20
127.3284421842528
 42
0.0
 10
134.1332079393053
 20
130.0960368379646
 42
0.0
 10
133.249711301593
 20
130.0960368379646
 42
0.0
 10
132.6001618925841
 20
127.8419387664297
 42
-0.1340281147132998
 10
132.4856575761035
 20
127.7302619838861
 42
0.0
 10
131.850691540791
 20
127.7302619838861
 42
-0.4380919079513468
 10
131.7241055559819
 20
128.0129766091918
 42
0.0
 97
        0
 92
        7
 72
     1
 73
     1
 93
       11
 10
133.7741999875205
 20
127.0967852400988
 42
0.0
 10
134.6583766073909
 20
127.0967852400988
 42
0.0
 10
135.2864446398288
 20
129.3167891006912
 42
-0.1916628029051352
 10
135.4189913029808
 20
129.4543214720722
 42
0.0
 10
136.0281977885842
 20
129.4543214720722
 42
-0.4082458363860901
 10
136.1996997596238
 20
129.2378608015467
 42
0.0
 10
135.5522708741441
 20
127.0941201069827
 42
0.0
 10
136.438850634569
 20
127.0941201069827
 42
0.0
 10
137.1050785907262
 20
129.446620442505
 42
0.36525003323555
 10
136.58220260924
 20
130.0960368379646
 42
0.0
 10
134.7065135268444
 20
130.0960368379646
 42
0.0
 97
        0
 75
     0
 76
     1
 47
0.0497082958319698
 98
        2
 10
131.7819155840354
 20
129.1253025687619
 10
134.862997981086
 20
129.4599229652868
450
        0
451
        0
460
0.0
461
0.0
452
        0
462
0.0
453
        0
470

  0
ARC
  5
4330
330
1F
100
AcDbEntity
  8
文字标准层
100
AcDbCircle
 10
135.5255216774383
 20
129.2190159154323
 30
0.0
 40
0.2582971654272017
100
AcDbArc
 50
114.3577882232847
 51
157.7573526105737
  0
LINE
  5
4331
330
1F
100
AcDbEntity
  8
文字标准层
100
AcDbLine
 10
134.6583766073909
 20
127.0967852400988
 30
0.0
 11
135.2864446398288
 21
129.3167891006912
 31
0.0
  0
LINE
  5
4332
330
1F
100
AcDbEntity
  8
文字标准层
100
AcDbLine
 10
134.7065135268444
 20
130.0960368379647
 30
0.0
 11
133.7741999875205
 21
127.0967852400988
 31
0.0
  0
LINE
  5
4333
330
1F
100
AcDbEntity
  8
文字标准层
100
AcDbLine
 10
134.1332079393052
 20
130.0960368379647
 30
0.0
 11
133.252449639218
 21
127.3284421842529
 31
0.0
  0
MTEXT
  5
4334
330
1F
100
AcDbEntity
  8
文字标准层
100
AcDbMText
 10
138.2076277286456
 20
128.5634846395125
 30
0.0
 40
1.137384948079287
 41
0.0
 71
     1
 72
     5
  1
{\fSimHei|b0|i0|c134|p2;R}
 73
     1
 44
1.0
  0
HATCH
  5
4335
330
1F
100
AcDbEntity
  8
文字标准层
100
AcDbHatch
 10
0.0
 20
0.0
 30
0.0
210
0.0
220
0.0
230
1.0
  2
SOLID
 70
     1
 71
     0
 91
        2
 92
        7
 72
     1
 73
     1
 93
        2
 10
137.6260301490637
 20
127.9828799116439
 42
1.0
 10
139.4008889065577
 20
127.9828799116439
 42
1.0
 97
        0
 92
       22
 72
     1
 73
     1
 93
        2
 10
139.2717161598636
 20
127.9828799116439
 42
-1.0
 10
137.755202895758
 20
127.9828799116439
 42
-1.0
 97
        0
 75
     0
 76
     1
 47
0.1612021830865934
 98
        2
 10
138.281742654038
 20
128.7919401874541
 10
138.281742654038
 20
128.7919401874541
450
        0
451
        0
460
0.0
461
0.0
452
        0
462
0.0
453
        0
470

  0
CIRCLE
  5
4336
330
1F
100
AcDbEntity
  8
文字标准层
100
AcDbCircle
 10
138.5134595278109
 20
127.982879911644
 30
0.0
 40
0.7582566320528582
  0
CIRCLE
  5
4337
330
1F
100
AcDbEntity
  8
文字标准层
100
AcDbCircle
 10
138.5134595278109
 20
127.982879911644
 30
0.0
 40
0.8874293787470451
  0
ARC
  5
4338
330
1F
100
AcDbEntity
  8
文字标准层
100
AcDbCircle
 10
136.4584391830649
 20
129.4611846858336
 30
0.0
 40
0.6468034019114631
100
AcDbArc
 50
358.709746725802
 51
78.96863789143435
  0
ARC
  5
4339
330
1F
100
AcDbEntity
  8
文字标准层
100
AcDbCircle
 10
136.0034857211108
 20
129.2585711671569
 30
0.0
 40
0.1973039993340989
100
AcDbArc
 50
353.9747473472985
 51
82.80488245575543
  0
LINE
  5
433A
330
1F
100
AcDbEntity
  8
文字标准层
100
AcDbLine
 10
134.7065135268444
 20
130.0960368379647
 30
0.0
 11
136.58220260924
 21
130.0960368379647
 31
0.0
  0
LINE
  5
433B
330
1F
100
AcDbEntity
  8
文字标准层
100
AcDbLine
 10
136.4388506345691
 20
127.0941201069828
 30
0.0
 11
137.1050785907262
 21
129.446620442505
 31
0.0
  0
LINE
  5
433C
330
1F
100
AcDbEntity
  8
文字标准层
100
AcDbLine
 10
135.5522708741441
 20
127.0941201069828
 30
0.0
 11
136.4388506345691
 21
127.0941201069828
 31
0.0
  0
LINE
  5
433D
330
1F
100
AcDbEntity
  8
文字标准层
100
AcDbLine
 10
136.1996997596236
 20
129.2378608015461
 30
0.0
 11
135.5522708741441
 21
127.0941201069828
 31
0.0
  0
LINE
  5
433E
330
1F
100
AcDbEntity
  8
文字标准层
100
AcDbLine
 10
135.4189913029806
 20
129.4543214720723
 30
0.0
 11
136.0281977885842
 21
129.4543214720723
 31
0.0
  0
LINE
  5
433F
330
1F
100
AcDbEntity
  8
文字标准层
100
AcDbLine
 10
133.7741999875205
 20
127.0967852400988
 30
0.0
 11
134.6583766073909
 21
127.0967852400988
 31
0.0
  0
ARC
  5
4340
330
1F
100
AcDbEntity
  8
文字标准层
100
AcDbCircle
 10
132.8212860574506
 20
127.5772592723446
 30
0.0
 40
0.4978071690614798
100
AcDbArc
 50
282.7423694360632
 51
330.0114948665377
  0
LINE
  5
4341
330
1F
100
AcDbEntity
  8
文字标准层
100
AcDbLine
 10
133.2497113015932
 20
130.0960368379647
 30
0.0
 11
134.1332079393052
 21
130.0960368379647
 31
0.0
  0
ARC
  5
4342
330
1F
100
AcDbEntity
  8
文字标准层
100
AcDbCircle
 10
132.3383431907368
 20
127.9958463198117
 30
0.0
 40
0.3037047375742282
100
AcDbArc
 50
299.016266605623
 51
329.551276632127
  0
ARC
  5
4343
330
1F
100
AcDbEntity
  8
文字标准层
100
AcDbCircle
 10
131.9177677428714
 20
127.9299923391603
 30
0.0
 40
0.2106927424082416
100
AcDbArc
 50
156.8048613433244
 51
251.4362090194565
  0
LINE
  5
4344
330
1F
100
AcDbEntity
  8
文字标准层
100
AcDbLine
 10
133.2497113015932
 20
130.0960368379647
 30
0.0
 11
132.6001618925842
 21
127.8419387664298
 31
0.0
  0
LINE
  5
4345
330
1F
100
AcDbEntity
  8
文字标准层
100
AcDbLine
 10
131.850691540791
 20
127.7302619838861
 30
0.0
 11
132.4856575761035
 21
127.7302619838861
 31
0.0
  0
LINE
  5
4346
330
1F
100
AcDbEntity
  8
文字标准层
100
AcDbLine
 10
132.3450147914859
 20
130.0972527322345
 30
0.0
 11
131.7241055559819
 21
128.0129766091919
 31
0.0
  0
LINE
  5
4347
330
1F
100
AcDbEntity
  8
文字标准层
100
AcDbLine
 10
131.4662343075237
 20
130.0972527322345
 30
0.0
 11
132.3450147914859
 21
130.0972527322345
 31
0.0
  0
ARC
  5
4348
330
1F
100
AcDbEntity
  8
文字标准层
100
AcDbCircle
 10
131.4366934032195
 20
127.6945449036967
 30
0.0
 40
0.6107685551059383
100
AcDbArc
 50
171.2713341118777
 51
260.7536852297649
  0
LINE
  5
4349
330
1F
100
AcDbEntity
  8
文字标准层
100
AcDbLine
 10
131.3385556723094
 20
127.0917122455916
 30
0.0
 11
132.9310861593642
 21
127.0917122455916
 31
0.0
  0
LINE
  5
434A
330
1F
100
AcDbEntity
  8
文字标准层
100
AcDbLine
 10
131.4662343075237
 20
130.0972527322345
 30
0.0
 11
130.8329987175004
 21
127.787232304893
 31
0.0
  0
ARC
  5
434B
330
1F
100
AcDbEntity
  8
文字标准层
100
AcDbCircle
 10
130.8113297768514
 20
129.9334848827851
 30
0.0
 40
0.1884647511756077
100
AcDbArc
 50
348.2489944183024
 51
63.10791382560765
  0
ARC
  5
434C
330
1F
100
AcDbEntity
  8
文字标准层
100
AcDbCircle
 10
129.9778149392562
 20
128.9164927320633
 30
0.0
 40
0.6869789404193824
100
AcDbArc
 50
286.0643257563202
 51
328.9457030839753
  0
LINE
  5
434D
330
1F
100
AcDbEntity
  8
文字标准层
100
AcDbLine
 10
130.9958446646006
 20
129.8951023524542
 30
0.0
 11
130.5663352575501
 21
128.5621145449028
 31
0.0
  0
LINE
  5
434E
330
1F
100
AcDbEntity
  8
文字标准层
100
AcDbLine
 10
128.6956740423389
 20
128.2563391973138
 30
0.0
 11
130.1679132694362
 21
128.2563391973138
 31
0.0
  0
LINE
  5
434F
330
1F
100
AcDbEntity
  8
文字标准层
100
AcDbLine
 10
128.3479093826852
 20
127.0811254702089
 30
0.0
 11
128.6956740423389
 21
128.2563391973138
 31
0.0
  0
LINE
  5
4350
330
1F
100
AcDbEntity
  8
文字标准层
100
AcDbLine
 10
128.3479093826852
 20
127.0811254702089
 30
0.0
 11
128.3479093826852
 21
127.0811254702089
 31
0.0
  0
LINE
  5
4351
330
1F
100
AcDbEntity
  8
文字标准层
100
AcDbLine
 10
127.4974223695372
 20
127.0811254702089
 30
0.0
 11
128.3479093826852
 21
127.0811254702089
 31
0.0
  0
LINE
  5
4352
330
1F
100
AcDbEntity
  8
文字标准层
100
AcDbLine
 10
128.0566480571526
 20
128.9451963140674
 30
0.0
 11
127.4974223695372
 21
127.0811254702089
 31
0.0
  0
LINE
  5
4353
330
1F
100
AcDbEntity
  8
文字标准层
100
AcDbLine
 10
129.8271750920837
 20
128.9451963140674
 30
0.0
 11
128.0566480571526
 21
128.9451963140674
 31
0.0
  0
LINE
  5
4354
330
1F
100
AcDbEntity
  8
文字标准层
100
AcDbLine
 10
130.0131576909914
 20
129.4888389081732
 30
0.0
 11
129.8271750920837
 21
128.9451963140674
 31
0.0
  0
LINE
  5
4355
330
1F
100
AcDbEntity
  8
文字标准层
100
AcDbLine
 10
128.6545100011665
 20
129.4888389081732
 30
0.0
 11
130.0131576909914
 21
129.4888389081732
 31
0.0
  0
LINE
  5
4356
330
1F
100
AcDbEntity
  8
文字标准层
100
AcDbLine
 10
128.8318300185707
 20
130.1015690581105
 30
0.0
 11
130.8965745564031
 21
130.1015690581105
 31
0.0
  0
LINE
  5
4357
330
1F
100
AcDbEntity
  8
文字标准层
100
AcDbLine
 10
128.6545100011665
 20
129.4888389081732
 30
0.0
 11
128.8318300185707
 21
130.1015690581105
 31
0.0
  0
LINE
  5
4358
330
1F
100
AcDbEntity
  8
文字标准层
100
AcDbLine
 10
127.1363295993592
 20
129.4067082027255
 30
0.0
 11
127.3221687615344
 21
130.1027368785683
 31
0.0
  0
LINE
  5
4359
330
1F
100
AcDbEntity
  8
文字标准层
100
AcDbLine
 10
127.9670300138025
 20
129.4067082027255
 30
0.0
 11
127.1363295993592
 21
129.4067082027255
 31
0.0
  0
LINE
  5
435A
330
1F
100
AcDbEntity
  8
文字标准层
100
AcDbLine
 10
128.1588451951475
 20
130.1027368785683
 30
0.0
 11
127.9670300138025
 21
129.4067082027255
 31
0.0
  0
LINE
  5
435B
330
1F
100
AcDbEntity
  8
文字标准层
100
AcDbLine
 10
127.3221687615344
 20
130.1027368785683
 30
0.0
 11
128.1588451951475
 21
130.1027368785683
 31
0.0
  0
ARC
  5
435C
330
1F
100
AcDbEntity
  8
文字标准层
100
AcDbCircle
 10
126.1300082040071
 20
127.6329728799
 30
0.0
 40
0.5710458347953288
100
AcDbArc
 50
286.923497148313
 51
325.9283283887048
  0
LINE
  5
435D
330
1F
100
AcDbEntity
  8
文字标准层
100
AcDbLine
 10
127.2016842071564
 20
129.0928178200459
 30
0.0
 11
126.6030268412608
 21
127.3130561497221
 31
0.0
  0
LINE
  5
435E
330
1F
100
AcDbEntity
  8
文字标准层
100
AcDbLine
 10
124.8070114057383
 20
130.0945693793633
 30
0.0
 11
125.6881227473612
 21
130.0945693793633
 31
0.0
  0
LINE
  5
435F
330
1F
100
AcDbEntity
  8
文字标准层
100
AcDbLine
 10
126.3804299281059
 20
129.0928178200459
 30
0.0
 11
127.2016842071564
 21
129.0928178200459
 31
0.0
  0
ARC
  5
4360
330
1F
100
AcDbEntity
  8
文字标准层
100
AcDbCircle
 10
124.7778561865381
 20
127.6945317494776
 30
0.0
 40
0.6170930163781802
100
AcDbArc
 50
174.7358192495353
 51
260.0843895726378
  0
LINE
  5
4361
330
1F
100
AcDbEntity
  8
文字标准层
100
AcDbLine
 10
125.7998635948588
 20
127.7316934420074
 30
0.0
 11
125.2028898847303
 21
127.7316934420074
 31
0.0
  0
ARC
  5
4362
330
1F
100
AcDbEntity
  8
文字标准层
100
AcDbCircle
 10
125.251442712008
 20
127.9294434085741
 30
0.0
 40
0.2036232460055718
100
AcDbArc
 50
156.9623470693528
 51
256.2052529125257
  0
ARC
  5
4363
330
1F
100
AcDbEntity
  8
文字标准层
100
AcDbCircle
 10
125.758823433967
 20
127.9401643376001
 30
0.0
 40
0.2124721372681322
100
AcDbArc
 50
281.1369928591414
 51
340.8347293231269
  0
LINE
  5
4364
330
1F
100
AcDbEntity
  8
文字标准层
100
AcDbLine
 10
126.3804299281059
 20
129.0928178200459
 30
0.0
 11
125.959519416978
 21
127.8704109755409
 31
0.0
  0
LINE
  5
4365
330
1F
100
AcDbEntity
  8
文字标准层
100
AcDbLine
 10
125.6881227473612
 20
130.0945693793633
 30
0.0
 11
125.0640588517849
 21
128.0091285090745
 31
0.0
  0
LINE
  5
4366
330
1F
100
AcDbEntity
  8
文字标准层
100
AcDbLine
 10
124.6715943178758
 20
127.0866565927792
 30
0.0
 11
126.2962365405308
 21
127.0866565927792
 31
0.0
  0
LINE
  5
4367
330
1F
100
AcDbEntity
  8
文字标准层
100
AcDbLine
 10
124.4895974218037
 20
128.9404789340605
 30
0.0
 11
124.1633659140125
 21
127.7511488479
 31
0.0
  0
LINE
  5
4368
330
1F
100
AcDbEntity
  8
签字
 48
0.1
100
AcDbLine
 10
124.8070114057383
 20
130.0945693793633
 30
0.0
 11
124.4895974218037
 21
128.9404789340605
 31
0.0
  0
LINE
  5
4369
330
1F
100
AcDbEntity
  8
文字标准层
100
AcDbLine
 10
124.668833508504
 20
127.0871456724746
 30
0.0
 11
126.2686098516861
 21
127.0871456724746
 31
0.0
  0
HATCH
  5
436A
330
1F
100
AcDbEntity
  8
文字标准层
100
AcDbHatch
 10
0.0
 20
0.0
 30
0.0
210
0.0
220
0.0
230
1.0
  2
SOLID
 70
     1
 71
     0
 91
        1
 92
        7
 72
     1
 73
     1
 93
       15
 10
125.688122747361
 20
130.0945693793632
 42
0.0
 10
124.8070114057383
 20
130.0945693793632
 42
0.0
 10
124.4895974218036
 20
128.9404789340603
 42
0.0
 10
124.1633659140123
 20
127.7511488478999
 42
0.3893220614929458
 10
124.6688335085042
 20
127.0871456724746
 42
0.0
 10
126.2686098516861
 20
127.0871456724746
 42
0.0
 10
126.2686098516861
 20
127.0866565927791
 42
0.0
 10
126.2962365405308
 20
127.0866565927791
 42
0.1718531295883214
 10
126.6030268412608
 20
127.313056149722
 42
0.0
 10
127.2016842071562
 20
129.0928178200458
 42
0.0
 10
126.3804299281059
 20
129.0928178200458
 42
0.0
 10
125.9599182758968
 20
127.8715693402278
 42
-0.2680806254990295
 10
125.7998635948588
 20
127.7316934420072
 42
0.0
 10
125.2028898847303
 20
127.7316934420072
 42
-0.4622920720497758
 10
125.0640588517849
 20
128.0091285090745
 42
0.0
 97
        0
 75
     0
 76
     1
 47
0.0343480651533947
 98
        1
 10
124.8551807594418
 20
129.0262346215921
450
        0
451
        0
460
0.0
461
0.0
452
        0
462
0.0
453
        0
470

  0
HATCH
  5
436B
330
1F
100
AcDbEntity
  8
文字标准层
100
AcDbHatch
 10
0.0
 20
0.0
 30
0.0
210
0.0
220
0.0
230
1.0
  2
SOLID
 70
     1
 71
     0
 91
        2
 92
        7
 72
     0
 73
     1
 93
        4
 10
127.3221687615344
 20
130.1027368785683
 10
127.1363295993592
 20
129.4067082027254
 10
127.9670300138023
 20
129.4067082027254
 10
128.1588451951475
 20
130.1027368785683
 97
        0
 92
        7
 72
     1
 73
     1
 93
       12
 10
130.0131576909914
 20
129.4888389081731
 42
0.0
 10
129.8271750920837
 20
128.9451963140673
 42
0.0
 10
128.0566480571526
 20
128.9451963140673
 42
0.0
 10
127.4974223695372
 20
127.0811254702088
 42
0.0
 10
128.3479093826854
 20
127.0811254702088
 42
0.0
 10
128.6956740423389
 20
128.2563391973137
 42
0.0
 10
130.1679132694362
 20
128.2563391973137
 42
0.1893197390594572
 10
130.5663352575499
 20
128.5621145449027
 42
0.0
 10
130.9958446646006
 20
129.8951023524542
 42
0.3387678891760735
 10
130.8965745564031
 20
130.1015690581105
 42
0.0
 10
128.8318300185705
 20
130.1015690581105
 42
0.0
 10
128.6545100011665
 20
129.4888389081731
 42
0.0
 97
        0
 75
     0
 76
     1
 47
0.0854109215093193
 98
        2
 10
127.583163194072
 20
129.8066526473594
 10
129.7467786741767
 20
129.6686623489039
450
        0
451
        0
460
0.0
461
0.0
452
        0
462
0.0
453
        0
470

  0
LINE
  5
43F3
330
1F
100
AcDbEntity
  8
轮廓线层
370
    15
100
AcDbLine
 10
111.5371176287937
 20
136.2959993527876
 30
0.0
 11
125.974968763472
 21
136.2959993527876
 31
0.0
  0
LINE
  5
43F4
330
1F
100
AcDbEntity
  8
轮廓线层
370
    15
100
AcDbLine
 10
137.0992664941155
 20
136.2959993527876
 30
0.0
 11
151.5371176287937
 21
136.2959993527876
 31
0.0
  0
LINE
  5
43F5
330
1F
100
AcDbEntity
  8
轮廓线层
370
    15
100
AcDbLine
 10
136.8990202761755
 20
136.5459993527876
 30
0.0
 11
151.5371176287937
 21
136.5459993527876
 31
0.0
  0
LINE
  5
43F6
330
1F
100
AcDbEntity
  8
轮廓线层
370
    15
100
AcDbLine
 10
111.5371176287937
 20
136.5459993527876
 30
0.0
 11
126.1752149814119
 21
136.5459993527876
 31
0.0
  0
ENDSEC
  0
SECTION
  2
OBJECTS
  0
DICTIONARY
  5
C
330
0
100
AcDbDictionary
281
     1
  3
ACAD_CIP_PREVIOUS_PRODUCT_INFO
350
3C03
  3
ACAD_COLOR
350
6B
  3
ACAD_GROUP
350
D
  3
ACAD_LAYOUT
350
1A
  3
ACAD_MATERIAL
350
6A
  3
ACAD_MLEADERSTYLE
350
1A66
  3
ACAD_MLINESTYLE
350
17
  3
ACAD_PLOTSETTINGS
350
19
  3
ACAD_PLOTSTYLENAME
350
E
  3
ACAD_SCALELIST
350
1A54
  3
ACAD_TABLESTYLE
350
1932
  3
ACAD_VISUALSTYLE
350
1921
  3
ACDB_RECOMPOSE_DATA
350
3C9F
  3
AcDbVariableDictionary
350
5E
  3
ASE_INDEX_DICTIONARY
350
1805
  3
lxx_dict
350
1A72
  0
DICTIONARY
  5
1990
330
8
100
AcDbDictionary
280
     1
281
     1
  0
DICTIONARY
  5
55C
330
2
100
AcDbDictionary
280
     1
281
     1
  3
ACAD_LAYERFILTERS
360
183E
  3
ACAD_LAYERSTATES
360
55D
  0
DICTIONARY
  5
1BA1
330
10
100
AcDbDictionary
280
     1
281
     1
  3
ADSK_XREC_LAYER_RECONCILED
360
1BA2
  0
DICTIONARY
  5
1BA3
330
53B
100
AcDbDictionary
280
     1
281
     1
  3
ADSK_XREC_LAYER_RECONCILED
360
1BA4
  0
DICTIONARY
  5
1BA5
330
53E
100
AcDbDictionary
280
     1
281
     1
  3
ADSK_XREC_LAYER_RECONCILED
360
1BA6
  0
DICTIONARY
  5
1BA7
330
541
100
AcDbDictionary
280
     1
281
     1
  3
ADSK_XREC_LAYER_RECONCILED
360
1BA8
  0
DICTIONARY
  5
1BA9
330
544
100
AcDbDictionary
280
     1
281
     1
  3
ADSK_XREC_LAYER_RECONCILED
360
1BAA
  0
DICTIONARY
  5
1BAB
330
547
100
AcDbDictionary
280
     1
281
     1
  3
ADSK_XREC_LAYER_RECONCILED
360
1BAC
  0
DICTIONARY
  5
1BAD
330
54A
100
AcDbDictionary
280
     1
281
     1
  3
ADSK_XREC_LAYER_RECONCILED
360
1BAE
  0
DICTIONARY
  5
1BAF
330
15BA
100
AcDbDictionary
280
     1
281
     1
  3
ADSK_XREC_LAYER_RECONCILED
360
1BB0
  0
DICTIONARY
  5
1BB1
330
15BD
100
AcDbDictionary
280
     1
281
     1
  3
ADSK_XREC_LAYER_RECONCILED
360
1BB2
  0
DICTIONARY
  5
1BB3
330
1761
100
AcDbDictionary
280
     1
281
     1
  3
ADSK_XREC_LAYER_RECONCILED
360
1BB4
  0
DICTIONARY
  5
1BB5
330
1778
100
AcDbDictionary
280
     1
281
     1
  3
ADSK_XREC_LAYER_RECONCILED
360
1BB6
  0
DICTIONARY
  5
1D76
330
1F
100
AcDbDictionary
280
     1
281
     1
  3
ACAD_SORTENTS
360
1D77
  0
DICTIONARY
  5
41D1
330
41CF
100
AcDbDictionary
280
     1
281
     1
  3
ACAD_SORTENTS
360
41D2
  0
DICTIONARY
  5
4179
330
416C
100
AcDbDictionary
280
     1
281
     1
  3
ACAD_DIMASSOC
360
4183
  0
DICTIONARY
  5
4191
330
4184
100
AcDbDictionary
280
     1
281
     1
  3
ACAD_DIMASSOC
360
419B
  0
DICTIONARY
  5
41A9
330
419C
100
AcDbDictionary
280
     1
281
     1
  3
ACAD_DIMASSOC
360
41B3
  0
XRECORD
  5
3C03
102
{ACAD_REACTORS
330
C
102
}
330
C
100
AcDbXrecord
280
     1
300
ACD
300
2012
300
ACD_F_S
  0
DICTIONARY
  5
6B
102
{ACAD_REACTORS
330
C
102
}
330
C
100
AcDbDictionary
281
     1
  0
DICTIONARY
  5
D
102
{ACAD_REACTORS
330
C
102
}
330
C
100
AcDbDictionary
281
     1
  0
DICTIONARY
  5
1A
102
{ACAD_REACTORS
330
C
102
}
330
C
100
AcDbDictionary
281
     1
  3
Model
350
22
  3
布局1
350
51
  3
布局2
350
56
  0
DICTIONARY
  5
6A
102
{ACAD_REACTORS
330
C
102
}
330
C
100
AcDbDictionary
281
     1
  3
ByBlock
350
15D0
  3
ByLayer
350
15D3
  3
Global
350
559
  0
DICTIONARY
  5
1A66
102
{ACAD_REACTORS
330
C
102
}
330
C
100
AcDbDictionary
281
     1
  3
Standard
350
1A67
  0
DICTIONARY
  5
17
102
{ACAD_REACTORS
330
C
102
}
330
C
100
AcDbDictionary
281
     1
  3
Standard
350
18
  0
DICTIONARY
  5
19
102
{ACAD_REACTORS
330
C
102
}
330
C
100
AcDbDictionary
281
     1
  0
ACDBDICTIONARYWDFLT
  5
E
102
{ACAD_REACTORS
330
C
102
}
330
C
100
AcDbDictionary
281
     1
  3
Normal
350
F
100
AcDbDictionaryWithDefault
340
F
  0
DICTIONARY
  5
1A54
102
{ACAD_REACTORS
330
C
102
}
330
C
100
AcDbDictionary
281
     1
  3
A0
350
1A55
  3
A1
350
1A56
  3
A2
350
1A57
  3
A3
350
1A58
  3
A4
350
1A59
  3
A5
350
1A5A
  3
A6
350
1A5B
  3
A7
350
1A5C
  3
A8
350
1A5D
  3
A9
350
1A5E
  3
B0
350
1A5F
  3
B1
350
1A60
  3
B2
350
1A61
  3
B3
350
1A62
  3
B4
350
1A63
  3
B5
350
1A64
  3
B6
350
1A65
  0
DICTIONARY
  5
1932
102
{ACAD_REACTORS
330
C
102
}
330
C
100
AcDbDictionary
281
     1
  3
Standard
350
1933
  0
DICTIONARY
  5
1921
102
{ACAD_REACTORS
330
C
102
}
330
C
100
AcDbDictionary
281
     1
  3
2dWireframe
350
1927
  3
3D Hidden
350
1929
  3
3dWireframe
350
1928
  3
Basic
350
1926
  3
Brighten
350
192D
  3
ColorChange
350
1931
  3
Conceptual
350
192A
  3
Dim
350
192C
  3
EdgeColorOff
350
1A53
  3
Facepattern
350
1930
  3
Flat
350
1922
  3
FlatWithEdges
350
1923
  3
Gouraud
350
1924
  3
GouraudWithEdges
350
1925
  3
Hidden
350
3BF8
  3
JitterOff
350
1A51
  3
Linepattern
350
192F
  3
OverhangOff
350
1A52
  3
Realistic
350
192B
  3
Shaded
350
3BFD
  3
Shaded with edges
350
3BFC
  3
Shades of Gray
350
3BF9
  3
Sketchy
350
3BFA
  3
Thicken
350
192E
  3
Wireframe
350
3BF7
  3
X-Ray
350
3BFB
  0
XRECORD
  5
3C9F
102
{ACAD_REACTORS
330
C
102
}
330
C
100
AcDbXrecord
280
     1
 90
        1
330
1933
  0
DICTIONARY
  5
5E
102
{ACAD_REACTORS
330
C
102
}
330
C
100
AcDbDictionary
281
     1
  3
CANNOSCALE
350
1C6B
  3
CMLEADERSTYLE
350
1C6A
  3
CTABLESTYLE
350
19B4
  3
DIMASSOC
350
5F
  3
HIDETEXT
350
63
  3
PROJECTNAME
350
17D7
  0
DICTIONARY
  5
1805
102
{ACAD_REACTORS
330
C
102
}
330
C
100
AcDbDictionary
281
     1
  3
ASEBlockHierarchyIndexRecord
350
1806
1001
DCO15
1040
1693999610.781
  0
DICTIONARY
  5
1A72
102
{ACAD_REACTORS
330
C
102
}
330
C
100
AcDbDictionary
281
     1
  3
lxx_dimth
350
1A73
  0
DICTIONARY
  5
183E
102
{ACAD_REACTORS
330
55C
102
}
330
55C
100
AcDbDictionary
281
     1
  0
DICTIONARY
  5
55D
102
{ACAD_REACTORS
330
55C
102
}
330
55C
100
AcDbDictionary
281
     1
  0
XRECORD
  5
1BA2
102
{ACAD_REACTORS
330
1BA1
102
}
330
1BA1
100
AcDbXrecord
280
     1
290
     1
  0
XRECORD
  5
1BA4
102
{ACAD_REACTORS
330
1BA3
102
}
330
1BA3
100
AcDbXrecord
280
     1
290
     1
  0
XRECORD
  5
1BA6
102
{ACAD_REACTORS
330
1BA5
102
}
330
1BA5
100
AcDbXrecord
280
     1
290
     1
  0
XRECORD
  5
1BA8
102
{ACAD_REACTORS
330
1BA7
102
}
330
1BA7
100
AcDbXrecord
280
     1
290
     1
  0
XRECORD
  5
1BAA
102
{ACAD_REACTORS
330
1BA9
102
}
330
1BA9
100
AcDbXrecord
280
     1
290
     1
  0
XRECORD
  5
1BAC
102
{ACAD_REACTORS
330
1BAB
102
}
330
1BAB
100
AcDbXrecord
280
     1
290
     1
  0
XRECORD
  5
1BAE
102
{ACAD_REACTORS
330
1BAD
102
}
330
1BAD
100
AcDbXrecord
280
     1
290
     1
  0
XRECORD
  5
1BB0
102
{ACAD_REACTORS
330
1BAF
102
}
330
1BAF
100
AcDbXrecord
280
     1
290
     1
  0
XRECORD
  5
1BB2
102
{ACAD_REACTORS
330
1BB1
102
}
330
1BB1
100
AcDbXrecord
280
     1
290
     1
  0
XRECORD
  5
1BB4
102
{ACAD_REACTORS
330
1BB3
102
}
330
1BB3
100
AcDbXrecord
280
     1
290
     1
  0
XRECORD
  5
1BB6
102
{ACAD_REACTORS
330
1BB5
102
}
330
1BB5
100
AcDbXrecord
280
     1
290
     1
  0
SORTENTSTABLE
  5
1D77
102
{ACAD_REACTORS
330
1D76
102
}
330
1D76
100
AcDbSortentsTable
330
1F
331
4163
  5
4167
331
4141
  5
4145
331
434A
  5
434E
331
4152
  5
4156
331
4138
  5
413C
331
4116
  5
411A
331
40F4
  5
40F4
331
24A7
  5
24A7
331
2485
  5
2485
331
435B
  5
435F
331
4339
  5
433D
331
4127
  5
412B
331
4105
  5
4105
331
40E3
  5
40E3
331
2496
  5
2496
331
247C
  5
247C
331
4161
  5
4165
331
436A
  5
43F5
331
4348
  5
434C
331
4150
  5
4154
331
4136
  5
413A
331
4114
  5
4114
331
40F2
  5
40F2
331
24A5
  5
24A5
331
2483
  5
2483
331
4359
  5
435D
331
4337
  5
433B
331
4125
  5
4129
331
4103
  5
4103
331
40E1
  5
40E1
331
24B6
  5
24B6
331
2494
  5
2494
331
247A
  5
247A
331
42E8
  5
4332
331
4368
  5
43F3
331
4346
  5
434A
331
414E
  5
4152
331
4134
  5
4138
331
4112
  5
4112
331
40F0
  5
40F0
331
24A3
  5
24A3
331
2481
  5
2481
331
4335
  5
4339
331
4357
  5
435B
331
415F
  5
4163
331
4123
  5
4127
331
4101
  5
4101
331
40DF
  5
40DF
331
389E
  5
389E
331
24B4
  5
24B4
331
2492
  5
2492
331
2478
  5
2478
331
4366
  5
436A
331
4344
  5
4348
331
414C
  5
4150
331
4132
  5
4136
331
4110
  5
4110
331
40EE
  5
40EE
331
24A1
  5
24A1
331
4333
  5
4337
331
4355
  5
4359
331
415D
  5
4161
331
4121
  5
4125
331
40FF
  5
40FF
331
40DD
  5
40DD
331
389C
  5
389C
331
24B2
  5
24B2
331
2490
  5
2490
331
2476
  5
2476
331
4364
  5
4368
331
4342
  5
4346
331
414A
  5
414E
331
4130
  5
4134
331
410E
  5
410E
331
40EC
  5
40EC
331
416C
  5
432F
331
4353
  5
4357
331
4331
  5
4335
331
415B
  5
415F
331
411F
  5
4123
331
43F5
  5
4119
331
40FD
  5
40FD
331
24B0
  5
24B0
331
249F
  5
249F
331
248E
  5
248E
331
2474
  5
2474
331
4362
  5
4366
331
4340
  5
4344
331
4148
  5
414C
331
412E
  5
4132
331
410C
  5
410C
331
40EA
  5
40EA
331
416A
  5
42DF
331
4351
  5
4355
331
432F
  5
4333
331
4159
  5
415D
331
413F
  5
4143
331
411D
  5
4121
331
43F3
  5
4115
331
40FB
  5
40FB
331
24AE
  5
24AE
331
249D
  5
249D
331
248C
  5
248C
331
2472
  5
2472
331
4360
  5
4364
331
4146
  5
414A
331
412C
  5
4130
331
410A
  5
410A
331
40E8
  5
40E8
331
4168
  5
4184
331
434F
  5
4353
331
4157
  5
415B
331
413D
  5
4141
331
411B
  5
411F
331
40F9
  5
40F9
331
433E
  5
4342
331
249B
  5
249B
331
248A
  5
248A
331
2470
  5
2470
331
4166
  5
416A
331
4144
  5
4148
331
412A
  5
412E
331
4108
  5
4108
331
434D
  5
4351
331
4155
  5
4159
331
413B
  5
413F
331
4119
  5
411D
331
40F7
  5
40F7
331
24AA
  5
24AA
331
2488
  5
2488
331
435E
  5
4362
331
433C
  5
4340
331
40E6
  5
40E6
331
2499
  5
2499
331
247F
  5
247F
331
4164
  5
4168
331
4142
  5
4146
331
4128
  5
412C
331
434B
  5
434F
331
4153
  5
4157
331
4139
  5
413D
331
4117
  5
411B
331
40F5
  5
40F5
331
24A8
  5
24A8
331
2486
  5
2486
331
435C
  5
4360
331
433A
  5
433E
331
4106
  5
4106
331
40E4
  5
40E4
331
2497
  5
2497
331
247D
  5
247D
331
4162
  5
4166
331
4140
  5
4144
331
4184
  5
4330
331
436B
  5
43F6
331
4349
  5
434D
331
4151
  5
4155
331
4137
  5
413B
331
4115
  5
4117
331
40F3
  5
40F3
331
24A6
  5
24A6
331
2484
  5
2484
331
435A
  5
435E
331
4338
  5
433C
331
4126
  5
412A
331
4104
  5
4104
331
40E2
  5
40E2
331
24B7
  5
24B7
331
2495
  5
2495
331
247B
  5
247B
331
4160
  5
4164
331
4369
  5
43F4
331
4347
  5
434B
331
414F
  5
4153
331
4135
  5
4139
331
4113
  5
4113
331
40F1
  5
40F1
331
24A4
  5
24A4
331
2482
  5
2482
331
4358
  5
435C
331
4336
  5
433A
331
4124
  5
4128
331
4102
  5
4102
331
40E0
  5
40E0
331
24B5
  5
24B5
331
2493
  5
2493
331
2479
  5
2479
331
4367
  5
436B
331
4345
  5
4349
331
414D
  5
4151
331
4133
  5
4137
331
4111
  5
4111
331
40EF
  5
40EF
331
24A2
  5
24A2
331
2480
  5
2480
331
4334
  5
4338
331
4356
  5
435A
331
415E
  5
4162
331
4122
  5
4126
331
4100
  5
4100
331
40DE
  5
40DE
331
389D
  5
389D
331
24B3
  5
24B3
331
2491
  5
2491
331
2477
  5
2477
331
4365
  5
4369
331
4343
  5
4347
331
414B
  5
414F
331
4131
  5
4135
331
410F
  5
410F
331
40ED
  5
40ED
331
24A0
  5
24A0
331
4332
  5
4336
331
4354
  5
4358
331
415C
  5
4160
331
4120
  5
4124
331
43F6
  5
4116
331
40FE
  5
40FE
331
40DC
  5
40DC
331
389B
  5
389B
331
24B1
  5
24B1
331
248F
  5
248F
331
2475
  5
2475
331
4363
  5
4367
331
4341
  5
4345
331
4149
  5
414D
331
412F
  5
4133
331
410D
  5
410D
331
40EB
  5
40EB
331
4352
  5
4356
331
4330
  5
4334
331
415A
  5
415E
331
411E
  5
4122
331
43F4
  5
4118
331
40FC
  5
40FC
331
24AF
  5
24AF
331
249E
  5
249E
331
248D
  5
248D
331
2473
  5
2473
331
4361
  5
4365
331
4147
  5
414B
331
412D
  5
4131
331
410B
  5
410B
331
40E9
  5
40E9
331
4169
  5
419C
331
4350
  5
4354
331
4158
  5
415C
331
413E
  5
4142
331
411C
  5
4120
331
40FA
  5
40FA
331
24AD
  5
24AD
331
433F
  5
4343
331
419C
  5
4331
331
249C
  5
249C
331
248B
  5
248B
331
2471
  5
2471
331
4167
  5
416C
331
4145
  5
4149
331
412B
  5
412F
331
4109
  5
4109
331
434E
  5
4352
331
4156
  5
415A
331
413C
  5
4140
331
411A
  5
411E
331
40F8
  5
40F8
331
24AB
  5
24AB
331
435F
  5
4363
331
433D
  5
4341
331
40E7
  5
40E7
331
249A
  5
249A
331
2489
  5
2489
331
4165
  5
4169
331
4143
  5
4147
331
4129
  5
412D
331
434C
  5
4350
331
4154
  5
4158
331
413A
  5
413E
331
4118
  5
411C
331
40F6
  5
40F6
331
24A9
  5
24A9
331
2487
  5
2487
331
435D
  5
4361
331
433B
  5
433F
331
4107
  5
4107
331
40E5
  5
40E5
331
2498
  5
2498
331
247E
  5
247E
  0
SORTENTSTABLE
  5
41D2
102
{ACAD_REACTORS
330
41D1
102
}
330
41D1
100
AcDbSortentsTable
330
41CF
  0
DIMASSOC
  5
4183
102
{ACAD_REACTORS
330
4179
102
}
330
4179
100
AcDbDimAssoc
330
416C
 90
        3
 70
     0
 71
     0
  1
AcDbOsnapPointRef
 72
    13
331
4127
 73
     2
 91
        0
 40
0.0
 10
0.0
 20
0.0
 30
2.000000000000000E+50
 75
     0
  1
AcDbOsnapPointRef
 72
     1
331
4127
 73
     2
 91
        0
 40
1.0
 10
0.0
 20
0.0
 30
2.000000000000000E+50
 75
     0
  0
DIMASSOC
  5
419B
102
{ACAD_REACTORS
330
4191
102
}
330
4191
100
AcDbDimAssoc
330
4184
 90
        3
 70
     0
 71
     0
  1
AcDbOsnapPointRef
 72
    13
331
4165
 73
     2
 91
        0
 40
0.0
 10
0.0
 20
0.0
 30
2.000000000000000E+50
 75
     0
  1
AcDbOsnapPointRef
 72
     1
331
414B
 73
     2
 91
        0
 40
3.141592653589793
 10
0.0
 20
0.0
 30
2.000000000000000E+50
 75
     0
  0
DIMASSOC
  5
41B3
102
{ACAD_REACTORS
330
41A9
102
}
330
41A9
100
AcDbDimAssoc
330
419C
 90
        3
 70
     0
 71
     0
  1
AcDbOsnapPointRef
 72
     1
331
4165
 73
     2
 91
        0
 40
1.570796326794896
 10
0.0
 20
0.0
 30
2.000000000000000E+50
 75
     0
  1
AcDbOsnapPointRef
 72
     5
331
4154
 73
     2
 91
        0
 40
4.712388980384689
 10
0.0
 20
0.0
 30
0.0
 75
     0
  0
LAYOUT
  5
22
102
{ACAD_XDICTIONARY
360
1BC0
102
}
102
{ACAD_REACTORS
330
1A
102
}
330
1A
100
AcDbPlotSettings
  1

  2
none_device
  4
ANSI_A_(8.50_x_11.00_Inches)
  6

 40
6.349999904632568
 41
19.04999923706055
 42
6.350006103515625
 43
19.04998779296875
 44
215.8999938964844
 45
279.3999938964844
 46
0.0
 47
0.0
 48
0.0
 49
0.0
140
0.0
141
0.0
142
1.0
143
78.436453180766
 70
 11952
 72
     0
 73
     1
 74
     0
  7

 75
     0
147
0.0127491741332998
 76
     0
 77
     2
 78
   300
148
0.0
149
0.0
100
AcDbLayout
  1
Model
 70
     1
 71
     0
 10
0.0
 20
0.0
 11
12.0
 21
9.0
 12
0.0
 22
0.0
 32
0.0
 14
0.0
 24
0.0
 34
0.0
 15
0.0
 25
0.0
 35
0.0
146
0.0
 13
0.0
 23
0.0
 33
0.0
 16
1.0
 26
0.0
 36
0.0
 17
0.0
 27
1.0
 37
0.0
 76
     0
330
1F
331
191F
  0
LAYOUT
  5
51
102
{ACAD_REACTORS
330
1A
102
}
330
1A
100
AcDbPlotSettings
  1

  2
None
  4

  6

 40
0.0
 41
0.0
 42
0.0
 43
0.0
 44
0.0
 45
0.0
 46
0.0
 47
0.0
 48
0.0
 49
0.0
140
0.0
141
0.0
142
1.0
143
1.0
 70
   688
 72
     0
 73
     0
 74
     5
  7

 75
    16
147
1.0
 76
     0
 77
     2
 78
   300
148
0.0
149
0.0
100
AcDbLayout
  1
布局1
 70
     1
 71
     1
 10
0.0
 20
0.0
 11
12.0
 21
9.0
 12
0.0
 22
0.0
 32
0.0
 14
0.0
 24
0.0
 34
0.0
 15
0.0
 25
0.0
 35
0.0
146
0.0
 13
0.0
 23
0.0
 33
0.0
 16
1.0
 26
0.0
 36
0.0
 17
0.0
 27
1.0
 37
0.0
 76
     0
330
50
  0
LAYOUT
  5
56
102
{ACAD_REACTORS
330
1A
102
}
330
1A
100
AcDbPlotSettings
  1

  2
None
  4

  6

 40
0.0
 41
0.0
 42
0.0
 43
0.0
 44
0.0
 45
0.0
 46
0.0
 47
0.0
 48
0.0
 49
0.0
140
0.0
141
0.0
142
1.0
143
1.0
 70
   688
 72
     0
 73
     0
 74
     5
  7

 75
    16
147
1.0
 76
     0
 77
     2
 78
   300
148
0.0
149
0.0
100
AcDbLayout
  1
布局2
 70
     1
 71
     2
 10
0.0
 20
0.0
 11
12.0
 21
9.0
 12
0.0
 22
0.0
 32
0.0
 14
0.0
 24
0.0
 34
0.0
 15
0.0
 25
0.0
 35
0.0
146
0.0
 13
0.0
 23
0.0
 33
0.0
 16
1.0
 26
0.0
 36
0.0
 17
0.0
 27
1.0
 37
0.0
 76
     0
330
55
  0
MATERIAL
  5
15D0
102
{ACAD_XDICTIONARY
360
4444
102
}
102
{ACAD_REACTORS
330
6A
102
}
330
6A
100
AcDbMaterial
  1
ByBlock
  0
MATERIAL
  5
15D3
102
{ACAD_XDICTIONARY
360
4446
102
}
102
{ACAD_REACTORS
330
6A
102
}
330
6A
100
AcDbMaterial
  1
ByLayer
  0
MATERIAL
  5
559
102
{ACAD_XDICTIONARY
360
4442
102
}
102
{ACAD_REACTORS
330
6A
102
}
330
6A
100
AcDbMaterial
  1
Global
  0
ACAD_PROXY_OBJECT
  5
1A67
102
{ACAD_REACTORS
330
1A66
102
}
330
1A66
100
AcDbProxyObject
 90
      499
 91
      510
 95
  6815769
 70
     0
 93
      744
310
40901902A40600000030400FEFFFFFF8000000000000008102B5E8DC0F42B5CFD095374616E646172640000000000000004102405064068000000C1000000000000000410000000000000004102000000304015D90000000000000C03F00
340
14
340
0
340
11
340
0
 94
        0
1001
ACAD_MLEADERVER
1070
     2
  0
MLINESTYLE
  5
18
102
{ACAD_REACTORS
330
17
102
}
330
17
100
AcDbMlineStyle
  2
STANDARD
 70
     0
  3

 62
   256
 51
90.0
 52
90.0
 71
     2
 49
0.5
 62
   256
  6
BYLAYER
 49
-0.5
 62
   256
  6
BYLAYER
  0
ACDBPLACEHOLDER
  5
F
102
{ACAD_REACTORS
330
E
102
}
330
E
  0
ACAD_PROXY_OBJECT
  5
1A55
102
{ACAD_REACTORS
330
1A54
102
}
330
1A54
100
AcDbProxyObject
 90
      499
 91
      509
 95
  6815769
 70
     0
 93
       49
310
904313A31005CC
 94
        0
  0
ACAD_PROXY_OBJECT
  5
1A56
102
{ACAD_REACTORS
330
1A54
102
}
330
1A54
100
AcDbProxyObject
 90
      499
 91
      509
 95
  6815769
 70
     0
 93
      113
310
904313A3200400000000000000404C
 94
        0
  0
ACAD_PROXY_OBJECT
  5
1A57
102
{ACAD_REACTORS
330
1A54
102
}
330
1A54
100
AcDbProxyObject
 90
      499
 91
      509
 95
  6815769
 70
     0
 93
      113
310
904313A3400400000000000010404C
 94
        0
  0
ACAD_PROXY_OBJECT
  5
1A58
102
{ACAD_REACTORS
330
1A54
102
}
330
1A54
100
AcDbProxyObject
 90
      499
 91
      509
 95
  6815769
 70
     0
 93
      113
310
904313A3500400000000000014404C
 94
        0
  0
ACAD_PROXY_OBJECT
  5
1A59
102
{ACAD_REACTORS
330
1A54
102
}
330
1A54
100
AcDbProxyObject
 90
      499
 91
      509
 95
  6815769
 70
     0
 93
      113
310
904313A3800400000000000020404C
 94
        0
  0
ACAD_PROXY_OBJECT
  5
1A5A
102
{ACAD_REACTORS
330
1A54
102
}
330
1A54
100
AcDbProxyObject
 90
      499
 91
      509
 95
  6815769
 70
     0
 93
      121
310
905313A313000400000000000024404C
 94
        0
  0
ACAD_PROXY_OBJECT
  5
1A5B
102
{ACAD_REACTORS
330
1A54
102
}
330
1A54
100
AcDbProxyObject
 90
      499
 91
      509
 95
  6815769
 70
     0
 93
      121
310
905313A313600400000000000030404C
 94
        0
  0
ACAD_PROXY_OBJECT
  5
1A5C
102
{ACAD_REACTORS
330
1A54
102
}
330
1A54
100
AcDbProxyObject
 90
      499
 91
      509
 95
  6815769
 70
     0
 93
      121
310
905313A323000400000000000034404C
 94
        0
  0
ACAD_PROXY_OBJECT
  5
1A5D
102
{ACAD_REACTORS
330
1A54
102
}
330
1A54
100
AcDbProxyObject
 90
      499
 91
      509
 95
  6815769
 70
     0
 93
      121
310
905313A33300040000000000003E404C
 94
        0
  0
ACAD_PROXY_OBJECT
  5
1A5E
102
{ACAD_REACTORS
330
1A54
102
}
330
1A54
100
AcDbProxyObject
 90
      499
 91
      509
 95
  6815769
 70
     0
 93
      121
310
905313A343000400000000000044404C
 94
        0
  0
ACAD_PROXY_OBJECT
  5
1A5F
102
{ACAD_REACTORS
330
1A54
102
}
330
1A54
100
AcDbProxyObject
 90
      499
 91
      509
 95
  6815769
 70
     0
 93
      121
310
905313A353000400000000000049404C
 94
        0
  0
ACAD_PROXY_OBJECT
  5
1A60
102
{ACAD_REACTORS
330
1A54
102
}
330
1A54
100
AcDbProxyObject
 90
      499
 91
      509
 95
  6815769
 70
     0
 93
      129
310
906313A31303000400000000000059404C
 94
        0
  0
ACAD_PROXY_OBJECT
  5
1A61
102
{ACAD_REACTORS
330
1A54
102
}
330
1A54
100
AcDbProxyObject
 90
      499
 91
      509
 95
  6815769
 70
     0
 93
      113
310
904323A3100000000000000001014C
 94
        0
  0
ACAD_PROXY_OBJECT
  5
1A62
102
{ACAD_REACTORS
330
1A54
102
}
330
1A54
100
AcDbProxyObject
 90
      499
 91
      509
 95
  6815769
 70
     0
 93
      113
310
904343A3100000000000000041014C
 94
        0
  0
ACAD_PROXY_OBJECT
  5
1A63
102
{ACAD_REACTORS
330
1A54
102
}
330
1A54
100
AcDbProxyObject
 90
      499
 91
      509
 95
  6815769
 70
     0
 93
      113
310
904383A3100000000000000081014C
 94
        0
  0
ACAD_PROXY_OBJECT
  5
1A64
102
{ACAD_REACTORS
330
1A54
102
}
330
1A54
100
AcDbProxyObject
 90
      499
 91
      509
 95
  6815769
 70
     0
 93
      121
310
90531303A3100000000000000091014C
 94
        0
  0
ACAD_PROXY_OBJECT
  5
1A65
102
{ACAD_REACTORS
330
1A54
102
}
330
1A54
100
AcDbProxyObject
 90
      499
 91
      509
 95
  6815769
 70
     0
 93
      129
310
9063130303A3100000000000000165014C
 94
        0
  0
TABLESTYLE
  5
1933
102
{ACAD_XDICTIONARY
360
1C38
102
}
102
{ACAD_REACTORS
330
1932
102
}
330
1932
100
AcDbTableStyle
  3
Standard
 70
     0
 71
     0
 40
1.5
 41
1.5
280
     0
281
     0
  7
Standard
140
4.5
170
     2
 62
     0
 63
     7
283
     0
274
    -2
284
     1
 64
     0
275
    -2
285
     1
 65
     0
276
    -2
286
     1
 66
     0
277
    -2
287
     1
 67
     0
278
    -2
288
     1
 68
     0
279
    -2
289
     1
 69
     0
  7
Standard
140
6.0
170
     5
 62
     0
 63
     7
283
     0
274
    -2
284
     1
 64
     0
275
    -2
285
     1
 65
     0
276
    -2
286
     1
 66
     0
277
    -2
287
     1
 67
     0
278
    -2
288
     1
 68
     0
279
    -2
289
     1
 69
     0
  7
Standard
140
4.5
170
     5
 62
     0
 63
     7
283
     0
274
    -2
284
     1
 64
     0
275
    -2
285
     1
 65
     0
276
    -2
286
     1
 66
     0
277
    -2
287
     1
 67
     0
278
    -2
288
     1
 68
     0
279
    -2
289
     1
 69
     0
  0
VISUALSTYLE
  5
1927
102
{ACAD_XDICTIONARY
360
3CB1
102
}
102
{ACAD_REACTORS
330
1921
102
}
330
1921
100
AcDbVisualStyle
  2
2dWireframe
 70
     4
 71
     0
 72
     2
 73
     0
 90
        0
 40
-0.6
 41
-30.0
 62
     5
 63
     7
421
 16777215
 74
     1
 91
        4
 64
     7
 65
   257
 75
     1
175
     1
 42
1.0
 92
        0
 66
   257
 43
1.0
 76
     1
 77
     6
 78
     2
 67
     7
 79
     5
170
     0
171
     0
290
     0
174
     0
 93
        1
 44
0.0
173
     0
291
     0
 45
0.0
1001
ACAD
1000
AcDbSavedByObjectVersion
1070
     0
  0
VISUALSTYLE
  5
1929
102
{ACAD_XDICTIONARY
360
3CB5
102
}
102
{ACAD_REACTORS
330
1921
102
}
330
1921
100
AcDbVisualStyle
  2
3D Hidden
 70
     6
 71
     1
 72
     2
 73
     2
 90
        0
 40
-0.6
 41
-30.0
 62
     5
 63
     7
421
 16777215
 74
     2
 91
        2
 64
     7
 65
   257
 75
     2
175
     1
 42
40.0
 92
        0
 66
   257
 43
1.0
 76
     1
 77
     6
 78
     2
 67
     7
 79
     3
170
     0
171
     0
290
     0
174
     0
 93
        1
 44
0.0
173
     0
291
     0
 45
0.0
1001
ACAD
1000
AcDbSavedByObjectVersion
1070
     0
  0
VISUALSTYLE
  5
1928
102
{ACAD_XDICTIONARY
360
3CB3
102
}
102
{ACAD_REACTORS
330
1921
102
}
330
1921
100
AcDbVisualStyle
  2
3dWireframe
 70
     5
 71
     0
 72
     2
 73
     0
 90
        0
 40
-0.6
 41
-30.0
 62
     5
 63
     7
421
 16777215
 74
     1
 91
        4
 64
     7
 65
   257
 75
     1
175
     1
 42
1.0
 92
        0
 66
   257
 43
1.0
 76
     1
 77
     6
 78
     2
 67
     7
 79
     5
170
     0
171
     0
290
     0
174
     0
 93
        1
 44
0.0
173
     0
291
     0
 45
0.0
1001
ACAD
1000
AcDbSavedByObjectVersion
1070
     0
  0
VISUALSTYLE
  5
1926
102
{ACAD_XDICTIONARY
360
3CAF
102
}
102
{ACAD_REACTORS
330
1921
102
}
330
1921
100
AcDbVisualStyle
  2
Basic
 70
     7
 71
     1
 72
     0
 73
     1
 90
        0
 40
-0.6
 41
-30.0
 62
     5
 63
     7
421
 16777215
 74
     0
 91
        4
 64
     7
 65
   257
 75
     1
175
     1
 42
1.0
 92
        8
 66
     7
 43
1.0
 76
     1
 77
     6
 78
     2
 67
     7
 79
     5
170
     0
171
     0
290
     0
174
     0
 93
        1
 44
0.0
173
     0
291
     1
 45
0.0
1001
ACAD
1000
AcDbSavedByObjectVersion
1070
     0
  0
VISUALSTYLE
  5
192D
102
{ACAD_XDICTIONARY
360
3CBD
102
}
102
{ACAD_REACTORS
330
1921
102
}
330
1921
100
AcDbVisualStyle
  2
Brighten
 70
    12
 71
     2
 72
     2
 73
     0
 90
        0
 40
-0.6
 41
-30.0
 62
     5
 63
     7
421
 16777215
 74
     1
 91
        4
 64
     7
 65
   257
 75
     1
175
     1
 42
1.0
 92
        8
 66
     7
 43
1.0
 76
     1
 77
     6
 78
     2
 67
     7
 79
     5
170
     0
171
     0
290
     0
174
     0
 93
        1
 44
50.0
173
     0
291
     1
 45
0.0
1001
ACAD
1000
AcDbSavedByObjectVersion
1070
     0
  0
VISUALSTYLE
  5
1931
102
{ACAD_XDICTIONARY
360
3CC5
102
}
102
{ACAD_REACTORS
330
1921
102
}
330
1921
100
AcDbVisualStyle
  2
ColorChange
 70
    16
 71
     2
 72
     2
 73
     3
 90
        0
 40
-0.6
 41
-30.0
 62
     5
 63
     8
421
  8421504
 74
     1
 91
        4
 64
     7
 65
   257
 75
     1
175
     1
 42
1.0
 92
        8
 66
     8
424
  8421504
 43
1.0
 76
     1
 77
     6
 78
     2
 67
     7
 79
     5
170
     0
171
     0
290
     0
174
     0
 93
        1
 44
0.0
173
     0
291
     1
 45
0.0
1001
ACAD
1000
AcDbSavedByObjectVersion
1070
     0
  0
VISUALSTYLE
  5
192A
102
{ACAD_XDICTIONARY
360
3CB7
102
}
102
{ACAD_REACTORS
330
1921
102
}
330
1921
100
AcDbVisualStyle
  2
Conceptual
 70
     9
 71
     3
 72
     2
 73
     0
 90
        0
 40
-0.6
 41
-30.0
 62
     5
 63
     7
421
 16777215
 74
     2
 91
        2
 64
     7
 65
   257
 75
     1
175
     1
 42
40.0
 92
        8
 66
     7
 43
1.0
 76
     1
 77
     6
 78
     2
 67
     7
 79
     3
170
     0
171
     0
290
     0
174
     0
 93
        1
 44
0.0
173
     0
291
     0
 45
0.0
1001
ACAD
1000
AcDbSavedByObjectVersion
1070
     0
  0
VISUALSTYLE
  5
192C
102
{ACAD_XDICTIONARY
360
3CBB
102
}
102
{ACAD_REACTORS
330
1921
102
}
330
1921
100
AcDbVisualStyle
  2
Dim
 70
    11
 71
     2
 72
     2
 73
     0
 90
        0
 40
-0.6
 41
-30.0
 62
     5
 63
     7
421
 16777215
 74
     1
 91
        4
 64
     7
 65
   257
 75
     1
175
     1
 42
1.0
 92
        8
 66
     7
 43
1.0
 76
     1
 77
     6
 78
     2
 67
     7
 79
     5
170
     0
171
     0
290
     0
174
     0
 93
        1
 44
-50.0
173
     0
291
     1
 45
0.0
1001
ACAD
1000
AcDbSavedByObjectVersion
1070
     0
  0
VISUALSTYLE
  5
1A53
102
{ACAD_XDICTIONARY
360
3CCC
102
}
102
{ACAD_REACTORS
330
1921
102
}
330
1921
100
AcDbVisualStyle
  2
EdgeColorOff
 70
    22
 71
     2
 72
     2
 73
     0
 90
        0
 40
-0.6
 41
-30.0
 62
     5
 63
     7
421
 16777215
 74
     1
 91
        4
 64
     7
 65
   257
 75
     1
175
     1
 42
1.0
 92
        8
 66
     7
 43
1.0
 76
     1
 77
     6
 78
     2
 67
     7
 79
     5
170
     0
171
     0
290
     0
174
     0
 93
        1
 44
0.0
173
     0
291
     1
 45
0.0
1001
ACAD
1000
AcDbSavedByObjectVersion
1070
     0
  0
VISUALSTYLE
  5
1930
102
{ACAD_XDICTIONARY
360
3CC3
102
}
102
{ACAD_REACTORS
330
1921
102
}
330
1921
100
AcDbVisualStyle
  2
Facepattern
 70
    15
 71
     2
 72
     2
 73
     0
 90
        0
 40
-0.6
 41
-30.0
 62
     5
 63
     7
421
 16777215
 74
     1
 91
        4
 64
     7
 65
   257
 75
     1
175
     1
 42
1.0
 92
        8
 66
     7
 43
1.0
 76
     1
 77
     6
 78
     2
 67
     7
 79
     5
170
     0
171
     0
290
     0
174
     0
 93
        1
 44
0.0
173
     0
291
     1
 45
0.0
1001
ACAD
1000
AcDbSavedByObjectVersion
1070
     0
  0
VISUALSTYLE
  5
1922
102
{ACAD_XDICTIONARY
360
3CA7
102
}
102
{ACAD_REACTORS
330
1921
102
}
330
1921
100
AcDbVisualStyle
  2
Flat
 70
     0
 71
     2
 72
     1
 73
     1
 90
        2
 40
-0.6
 41
30.0
 62
     5
 63
     7
421
 16777215
 74
     0
 91
        4
 64
     7
 65
   257
 75
     1
175
     1
 42
1.0
 92
        8
 66
     7
 43
1.0
 76
     1
 77
     6
 78
     2
 67
     7
 79
     5
170
     0
171
     0
290
     0
174
     0
 93
       13
 44
0.0
173
     0
291
     1
 45
0.0
1001
ACAD
1000
AcDbSavedByObjectVersion
1070
     0
  0
VISUALSTYLE
  5
1923
102
{ACAD_XDICTIONARY
360
3CA9
102
}
102
{ACAD_REACTORS
330
1921
102
}
330
1921
100
AcDbVisualStyle
  2
FlatWithEdges
 70
     1
 71
     2
 72
     1
 73
     1
 90
        2
 40
-0.6
 41
30.0
 62
     5
 63
     7
421
 16777215
 74
     1
 91
        4
 64
     7
 65
   257
 75
     1
175
     1
 42
1.0
 92
        0
 66
   257
 43
1.0
 76
     1
 77
     6
 78
     2
 67
     7
 79
     5
170
     0
171
     0
290
     0
174
     0
 93
       13
 44
0.0
173
     0
291
     1
 45
0.0
1001
ACAD
1000
AcDbSavedByObjectVersion
1070
     0
  0
VISUALSTYLE
  5
1924
102
{ACAD_XDICTIONARY
360
3CAB
102
}
102
{ACAD_REACTORS
330
1921
102
}
330
1921
100
AcDbVisualStyle
  2
Gouraud
 70
     2
 71
     2
 72
     2
 73
     1
 90
        2
 40
-0.6
 41
30.0
 62
     5
 63
     7
421
 16777215
 74
     0
 91
        4
 64
     7
 65
   257
 75
     1
175
     1
 42
1.0
 92
        0
 66
     7
 43
1.0
 76
     1
 77
     6
 78
     2
 67
     7
 79
     5
170
     0
171
     0
290
     0
174
     0
 93
       13
 44
0.0
173
     0
291
     1
 45
0.0
1001
ACAD
1000
AcDbSavedByObjectVersion
1070
     0
  0
VISUALSTYLE
  5
1925
102
{ACAD_XDICTIONARY
360
3CAD
102
}
102
{ACAD_REACTORS
330
1921
102
}
330
1921
100
AcDbVisualStyle
  2
GouraudWithEdges
 70
     3
 71
     2
 72
     2
 73
     1
 90
        2
 40
-0.6
 41
30.0
 62
     5
 63
     7
421
 16777215
 74
     1
 91
        4
 64
     7
 65
   257
 75
     1
175
     1
 42
1.0
 92
        0
 66
   257
 43
1.0
 76
     1
 77
     6
 78
     2
 67
     7
 79
     5
170
     0
171
     0
290
     0
174
     0
 93
       13
 44
0.0
173
     0
291
     1
 45
0.0
1001
ACAD
1000
AcDbSavedByObjectVersion
1070
     0
  0
VISUALSTYLE
  5
3BF8
102
{ACAD_XDICTIONARY
360
3CD0
102
}
102
{ACAD_REACTORS
330
1921
102
}
330
1921
100
AcDbVisualStyle
  2
Hidden
 70
     6
 71
     1
 72
     2
 73
     2
 90
        0
 40
-0.6
 41
-30.0
 62
     5
 63
     7
421
 16777215
 74
     2
 91
        2
 64
     7
 65
   257
 75
     2
175
     1
 42
40.0
 92
        0
 66
   257
 43
1.0
 76
     1
 77
     6
 78
     2
 67
     7
 79
     3
170
     0
171
     0
290
     0
174
     0
 93
        1
 44
0.0
173
     0
291
     0
 45
0.0
1001
ACAD
1000
AcDbSavedByObjectVersion
1070
     0
  0
VISUALSTYLE
  5
1A51
102
{ACAD_XDICTIONARY
360
3CC8
102
}
102
{ACAD_REACTORS
330
1921
102
}
330
1921
100
AcDbVisualStyle
  2
JitterOff
 70
    20
 71
     2
 72
     2
 73
     0
 90
        0
 40
-0.6
 41
-30.0
 62
     5
 63
     7
421
 16777215
 74
     1
 91
        4
 64
     7
 65
   257
 75
     1
175
     1
 42
1.0
 92
       10
 66
     7
 43
1.0
 76
     1
 77
     6
 78
     2
 67
     7
 79
     5
170
     0
171
     0
290
     0
174
     0
 93
        1
 44
0.0
173
     0
291
     1
 45
0.0
1001
ACAD
1000
AcDbSavedByObjectVersion
1070
     0
  0
VISUALSTYLE
  5
192F
102
{ACAD_XDICTIONARY
360
3CC1
102
}
102
{ACAD_REACTORS
330
1921
102
}
330
1921
100
AcDbVisualStyle
  2
Linepattern
 70
    14
 71
     2
 72
     2
 73
     0
 90
        0
 40
-0.6
 41
-30.0
 62
     5
 63
     7
421
 16777215
 74
     1
 91
        4
 64
     7
 65
   257
 75
     7
175
     7
 42
1.0
 92
        8
 66
     7
 43
1.0
 76
     1
 77
     6
 78
     2
 67
     7
 79
     5
170
     0
171
     0
290
     0
174
     0
 93
        1
 44
0.0
173
     0
291
     1
 45
0.0
1001
ACAD
1000
AcDbSavedByObjectVersion
1070
     0
  0
VISUALSTYLE
  5
1A52
102
{ACAD_XDICTIONARY
360
3CCA
102
}
102
{ACAD_REACTORS
330
1921
102
}
330
1921
100
AcDbVisualStyle
  2
OverhangOff
 70
    21
 71
     2
 72
     2
 73
     0
 90
        0
 40
-0.6
 41
-30.0
 62
     5
 63
     7
421
 16777215
 74
     1
 91
        4
 64
     7
 65
   257
 75
     1
175
     1
 42
1.0
 92
        9
 66
     7
 43
1.0
 76
     1
 77
     6
 78
     2
 67
     7
 79
     5
170
     0
171
     0
290
     0
174
     0
 93
        1
 44
0.0
173
     0
291
     1
 45
0.0
1001
ACAD
1000
AcDbSavedByObjectVersion
1070
     0
  0
VISUALSTYLE
  5
192B
102
{ACAD_XDICTIONARY
360
3CB9
102
}
102
{ACAD_REACTORS
330
1921
102
}
330
1921
100
AcDbVisualStyle
  2
Realistic
 70
     8
 71
     2
 72
     2
 73
     0
 90
        0
 40
-0.6
 41
-30.0
 62
     5
 63
     7
421
 16777215
 74
     1
 91
        0
 64
     7
 65
   257
 75
     1
175
     1
 42
1.0
 92
        8
 66
     8
424
  7895160
 43
1.0
 76
     1
 77
     6
 78
     2
 67
     7
 79
     5
170
     0
171
     0
290
     0
174
     0
 93
       13
 44
0.0
173
     0
291
     0
 45
0.0
1001
ACAD
1000
AcDbSavedByObjectVersion
1070
     0
  0
VISUALSTYLE
  5
3BFD
102
{ACAD_XDICTIONARY
360
3CDA
102
}
102
{ACAD_REACTORS
330
1921
102
}
330
1921
100
AcDbVisualStyle
  2
Shaded
 70
    27
 71
     2
 72
     2
 73
     1
 90
        2
 40
-0.6
 41
30.0
 62
     5
 63
     7
421
 16777215
 74
     0
 91
        4
 64
     7
 65
   257
 75
     1
175
     1
 42
1.0
 92
        8
 66
   257
 43
1.0
 76
     1
 77
     6
 78
     2
 67
     8
425
  7895160
 79
     3
170
     0
171
     0
290
     0
174
     0
 93
        5
 44
0.0
173
     0
291
     0
 45
0.0
1001
ACAD
1000
AcDbSavedByObjectVersion
1070
     0
  0
VISUALSTYLE
  5
3BFC
102
{ACAD_XDICTIONARY
360
3CD8
102
}
102
{ACAD_REACTORS
330
1921
102
}
330
1921
100
AcDbVisualStyle
  2
Shaded with edges
 70
    26
 71
     2
 72
     2
 73
     1
 90
        2
 40
-0.6
 41
30.0
 62
     5
 63
     7
421
 16777215
 74
     1
 91
       10
 64
     7
 65
   257
 75
     2
175
     1
 42
1.0
 92
        8
 66
   257
 43
1.0
 76
     1
 77
     6
 78
     2
 67
     7
 79
     3
170
     0
171
     0
290
     0
174
     0
 93
        5
 44
0.0
173
     0
291
     0
 45
0.0
1001
ACAD
1000
AcDbSavedByObjectVersion
1070
     0
  0
VISUALSTYLE
  5
3BF9
102
{ACAD_XDICTIONARY
360
3CD2
102
}
102
{ACAD_REACTORS
330
1921
102
}
330
1921
100
AcDbVisualStyle
  2
Shades of Gray
 70
    23
 71
     2
 72
     2
 73
     3
 90
        0
 40
-0.6
 41
-30.0
 62
     5
 63
     7
421
 16777215
 74
     2
 91
        2
 64
     7
 65
     7
 75
     1
175
     1
 42
40.0
 92
        8
 66
     7
 43
1.0
 76
     1
 77
     6
 78
     2
 67
     7
 79
     3
170
     0
171
     0
290
     0
174
     0
 93
        1
 44
0.0
173
     0
291
     0
 45
0.0
1001
ACAD
1000
AcDbSavedByObjectVersion
1070
     0
  0
VISUALSTYLE
  5
3BFA
102
{ACAD_XDICTIONARY
360
3CD4
102
}
102
{ACAD_REACTORS
330
1921
102
}
330
1921
100
AcDbVisualStyle
  2
Sketchy
 70
    24
 71
     1
 72
     2
 73
     2
 90
        0
 40
-0.6
 41
-30.0
 62
     5
 63
     7
421
 16777215
 74
     2
 91
        2
 64
     7
 65
     7
 75
     1
175
     1
 42
40.0
 92
       11
 66
     7
 43
1.0
 76
     1
 77
     6
 78
     2
 67
     7
 79
     6
170
     0
171
     0
290
     0
174
     0
 93
        1
 44
0.0
173
     0
291
     0
 45
0.0
1001
ACAD
1000
AcDbSavedByObjectVersion
1070
     0
  0
VISUALSTYLE
  5
192E
102
{ACAD_XDICTIONARY
360
3CBF
102
}
102
{ACAD_REACTORS
330
1921
102
}
330
1921
100
AcDbVisualStyle
  2
Thicken
 70
    13
 71
     2
 72
     2
 73
     0
 90
        0
 40
-0.6
 41
-30.0
 62
     5
 63
     7
421
 16777215
 74
     1
 91
        4
 64
     7
 65
   257
 75
     1
175
     1
 42
1.0
 92
       12
 66
     7
 43
1.0
 76
     1
 77
     6
 78
     2
 67
     7
 79
     5
170
     0
171
     0
290
     0
174
     0
 93
        1
 44
0.0
173
     0
291
     1
 45
0.0
1001
ACAD
1000
AcDbSavedByObjectVersion
1070
     0
  0
VISUALSTYLE
  5
3BF7
102
{ACAD_XDICTIONARY
360
3CCE
102
}
102
{ACAD_REACTORS
330
1921
102
}
330
1921
100
AcDbVisualStyle
  2
Wireframe
 70
     5
 71
     0
 72
     2
 73
     0
 90
        0
 40
-0.6
 41
-30.0
 62
     5
 63
     7
421
 16777215
 74
     1
 91
        4
 64
     7
 65
   257
 75
     1
175
     1
 42
1.0
 92
        0
 66
   257
 43
1.0
 76
     1
 77
     6
 78
     2
 67
     7
 79
     3
170
     0
171
     0
290
     0
174
     0
 93
        1
 44
0.0
173
     0
291
     0
 45
0.0
1001
ACAD
1000
AcDbSavedByObjectVersion
1070
     0
  0
VISUALSTYLE
  5
3BFB
102
{ACAD_XDICTIONARY
360
3CD6
102
}
102
{ACAD_REACTORS
330
1921
102
}
330
1921
100
AcDbVisualStyle
  2
X-Ray
 70
    25
 71
     2
 72
     2
 73
     1
 90
        1
 40
0.5
 41
-30.0
 62
     5
 63
     7
421
 16777215
 74
     1
 91
        0
 64
     7
 65
   257
 75
     1
175
     1
 42
1.0
 92
        8
 66
     7
 43
1.0
 76
     1
 77
     6
 78
     2
 67
     7
 79
     3
170
     0
171
     0
290
     0
174
     0
 93
       13
 44
0.0
173
     0
291
     0
 45
0.0
1001
ACAD
1000
AcDbSavedByObjectVersion
1070
     0
  0
DICTIONARYVAR
  5
1C6B
102
{ACAD_REACTORS
330
5E
102
}
330
5E
100
DictionaryVariables
280
     0
  1
1:1
  0
DICTIONARYVAR
  5
1C6A
102
{ACAD_REACTORS
330
5E
102
}
330
5E
100
DictionaryVariables
280
     0
  1
STANDARD
  0
DICTIONARYVAR
  5
19B4
102
{ACAD_REACTORS
330
5E
102
}
330
5E
100
DictionaryVariables
280
     0
  1
STANDARD
  0
DICTIONARYVAR
  5
5F
102
{ACAD_REACTORS
330
5E
102
}
330
5E
100
DictionaryVariables
280
     0
  1
2
  0
DICTIONARYVAR
  5
63
102
{ACAD_REACTORS
330
5E
102
}
330
5E
100
DictionaryVariables
280
     0
  1
1
  0
DICTIONARYVAR
  5
17D7
102
{ACAD_REACTORS
330
5E
102
}
330
5E
100
DictionaryVariables
280
     0
  1

  0
XRECORD
  5
1806
102
{ACAD_REACTORS
330
1805
102
}
330
1805
100
AcDbXrecord
280
     1
330
0
  0
VLO-VL
  5
1A73
102
{ACAD_REACTORS
330
1A72
102
}
330
1A72
100
vlo_VL
 90
   -64512
 91
       12
 92
        1
 40
2.5
300
(&VLO-R . 0)
  0
DICTIONARY
  5
1BC0
330
22
100
AcDbDictionary
280
     1
281
     1
  3
ADSK_XREC_LAYOUTTHUMBNAIL
360
1BC1
  0
DICTIONARY
  5
4444
330
15D0
100
AcDbDictionary
280
     1
281
     1
  3
ACAD_XREC_ROUNDTRIP
360
4445
  0
DICTIONARY
  5
4446
330
15D3
100
AcDbDictionary
280
     1
281
     1
  3
ACAD_XREC_ROUNDTRIP
360
4447
  0
DICTIONARY
  5
4442
330
559
100
AcDbDictionary
280
     1
281
     1
  3
ACAD_XREC_ROUNDTRIP
360
4443
  0
DICTIONARY
  5
1C38
330
1933
100
AcDbDictionary
280
     1
281
     1
  3
ACAD_ROUNDTRIP_2008_TABLESTYLE_CELLSTYLEMAP
360
3C9E
  3
ACAD_XREC_ROUNDTRIP
360
4448
  0
DICTIONARY
  5
3CB1
330
1927
100
AcDbDictionary
280
     1
281
     1
  3
ACAD_XREC_ROUNDTRIP
360
3CB2
  0
DICTIONARY
  5
3CB5
330
1929
100
AcDbDictionary
280
     1
281
     1
  3
ACAD_XREC_ROUNDTRIP
360
3CB6
  0
DICTIONARY
  5
3CB3
330
1928
100
AcDbDictionary
280
     1
281
     1
  3
ACAD_XREC_ROUNDTRIP
360
3CB4
  0
DICTIONARY
  5
3CAF
330
1926
100
AcDbDictionary
280
     1
281
     1
  3
ACAD_XREC_ROUNDTRIP
360
3CB0
  0
DICTIONARY
  5
3CBD
330
192D
100
AcDbDictionary
280
     1
281
     1
  3
ACAD_XREC_ROUNDTRIP
360
3CBE
  0
DICTIONARY
  5
3CC5
330
1931
100
AcDbDictionary
280
     1
281
     1
  3
ACAD_XREC_ROUNDTRIP
360
3CC6
  0
DICTIONARY
  5
3CB7
330
192A
100
AcDbDictionary
280
     1
281
     1
  3
ACAD_XREC_ROUNDTRIP
360
3CB8
  0
DICTIONARY
  5
3CBB
330
192C
100
AcDbDictionary
280
     1
281
     1
  3
ACAD_XREC_ROUNDTRIP
360
3CBC
  0
DICTIONARY
  5
3CCC
330
1A53
100
AcDbDictionary
280
     1
281
     1
  3
ACAD_XREC_ROUNDTRIP
360
3CCD
  0
DICTIONARY
  5
3CC3
330
1930
100
AcDbDictionary
280
     1
281
     1
  3
ACAD_XREC_ROUNDTRIP
360
3CC4
  0
DICTIONARY
  5
3CA7
330
1922
100
AcDbDictionary
280
     1
281
     1
  3
ACAD_XREC_ROUNDTRIP
360
3CA8
  0
DICTIONARY
  5
3CA9
330
1923
100
AcDbDictionary
280
     1
281
     1
  3
ACAD_XREC_ROUNDTRIP
360
3CAA
  0
DICTIONARY
  5
3CAB
330
1924
100
AcDbDictionary
280
     1
281
     1
  3
ACAD_XREC_ROUNDTRIP
360
3CAC
  0
DICTIONARY
  5
3CAD
330
1925
100
AcDbDictionary
280
     1
281
     1
  3
ACAD_XREC_ROUNDTRIP
360
3CAE
  0
DICTIONARY
  5
3CD0
330
3BF8
100
AcDbDictionary
280
     1
281
     1
  3
ACAD_XREC_ROUNDTRIP
360
3CD1
  0
DICTIONARY
  5
3CC8
330
1A51
100
AcDbDictionary
280
     1
281
     1
  3
ACAD_XREC_ROUNDTRIP
360
3CC9
  0
DICTIONARY
  5
3CC1
330
192F
100
AcDbDictionary
280
     1
281
     1
  3
ACAD_XREC_ROUNDTRIP
360
3CC2
  0
DICTIONARY
  5
3CCA
330
1A52
100
AcDbDictionary
280
     1
281
     1
  3
ACAD_XREC_ROUNDTRIP
360
3CCB
  0
DICTIONARY
  5
3CB9
330
192B
100
AcDbDictionary
280
     1
281
     1
  3
ACAD_XREC_ROUNDTRIP
360
3CBA
  0
DICTIONARY
  5
3CDA
330
3BFD
100
AcDbDictionary
280
     1
281
     1
  3
ACAD_XREC_ROUNDTRIP
360
3CDB
  0
DICTIONARY
  5
3CD8
330
3BFC
100
AcDbDictionary
280
     1
281
     1
  3
ACAD_XREC_ROUNDTRIP
360
3CD9
  0
DICTIONARY
  5
3CD2
330
3BF9
100
AcDbDictionary
280
     1
281
     1
  3
ACAD_XREC_ROUNDTRIP
360
3CD3
  0
DICTIONARY
  5
3CD4
330
3BFA
100
AcDbDictionary
280
     1
281
     1
  3
ACAD_XREC_ROUNDTRIP
360
3CD5
  0
DICTIONARY
  5
3CBF
330
192E
100
AcDbDictionary
280
     1
281
     1
  3
ACAD_XREC_ROUNDTRIP
360
3CC0
  0
DICTIONARY
  5
3CCE
330
3BF7
100
AcDbDictionary
280
     1
281
     1
  3
ACAD_XREC_ROUNDTRIP
360
3CCF
  0
DICTIONARY
  5
3CD6
330
3BFB
100
AcDbDictionary
280
     1
281
     1
  3
ACAD_XREC_ROUNDTRIP
360
3CD7
  0
XRECORD
  5
1BC1
102
{ACAD_REACTORS
330
1BC0
102
}
330
1BC0
100
AcDbXrecord
280
     1
310
280000000001000078000000010008000000000000780000000000000000000000010000000000000000000000000000FFFFFF000000000000000000000000000000000000000000000000000000000000000000330000006600000099000000CC000000FF00000000330000333300006633000099330000CC330000FF3300
310
0000660000336600006666000099660000CC660000FF66000000990000339900006699000099990000CC990000FF99000000CC000033CC000066CC000099CC0000CCCC0000FFCC000000FF000033FF000066FF000099FF0000CCFF0000FFFF000000003300330033006600330099003300CC003300FF003300003333003333
310
33006633330099333300CC333300FF33330000663300336633006666330099663300CC663300FF66330000993300339933006699330099993300CC993300FF99330000CC330033CC330066CC330099CC3300CCCC3300FFCC330000FF330033FF330066FF330099FF3300CCFF3300FFFF330000006600330066006600660099
310
006600CC006600FF00660000336600333366006633660099336600CC336600FF33660000666600336666006666660099666600CC666600FF66660000996600339966006699660099996600CC996600FF99660000CC660033CC660066CC660099CC6600CCCC6600FFCC660000FF660033FF660066FF660099FF6600CCFF6600
310
FFFF660000009900330099006600990099009900CC009900FF00990000339900333399006633990099339900CC339900FF33990000669900336699006666990099669900CC669900FF66990000999900339999006699990099999900CC999900FF99990000CC990033CC990066CC990099CC9900CCCC9900FFCC990000FF99
310
0033FF990066FF990099FF9900CCFF9900FFFF99000000CC003300CC006600CC009900CC00CC00CC00FF00CC000033CC003333CC006633CC009933CC00CC33CC00FF33CC000066CC003366CC006666CC009966CC00CC66CC00FF66CC000099CC003399CC006699CC009999CC00CC99CC00FF99CC0000CCCC0033CCCC0066CC
310
CC0099CCCC00CCCCCC00FFCCCC0000FFCC0033FFCC0066FFCC0099FFCC00CCFFCC00FFFFCC000000FF003300FF006600FF009900FF00CC00FF00FF00FF000033FF003333FF006633FF009933FF00CC33FF00FF33FF000066FF003366FF006666FF009966FF00CC66FF00FF66FF000099FF003399FF006699FF009999FF00CC
310
99FF00FF99FF0000CCFF0033CCFF0066CCFF0099CCFF00CCCCFF00FFCCFF0000FFFF0033FFFF0066FFFF0099FFFF00CCFFFF00FFFFFF00000000000D0D0D001A1A1A00282828003535350043434300505050005D5D5D006B6B6B00787878008686860093939300A1A1A100AEAEAE00BBBBBB00C9C9C900D6D6D600E4E4E400
310
F1F1F100FFFFFF000000000000000000000000000000000000000000000000000000000000000000000000000000000000000000000000000000000000000000000000000000000000000000000000000000000000000000000000000000000000000000000000000000000000000000000000000000000000000000000000
310
00000000000000000000000000000000000000000000000000000000000000000000000000000000000000000000000000000000000000000000000000000000000000000000000000000000000000000000000000000000000000000000000000000000000000000000000000000000000000000000000000000000000000
310
0000000000000000000000000000000000000000000000000000000000000000000000000000000000000000000000000000000000000000000000000000000000000000000000000000000000000000000000000000000000F5F5F5F5F5F5F5F5F5F5F5F5F5F5F5F5F5F5F5F5F5F5F5F5F5F5F5F5F5F5F5F5F5F5F5F5F5F5
310
F5F5F5F5F5F5F5F5F5F5F5F5F5F5F5F5F5F5F5F5F5F5F5F5F5F5F5F5F5F5F5F5F5F5F5F5F5F5F5F5F5F5F5F5F5F5F5F5F5F5F5F5F5F5F5F5F5F5F5F5F5F5F5F5F5F5F5F5F5F5F5F5F5F5F5F5F5F5F5F5F5F5F5F5F5F5F5F5F5F5F5F5F5F5F5F5F5F5F5F5F5F5F5F5F5F5F5F5F5F5F5F5F5F5F5F5F5F5F5F5F5F5F500000000
310
00000000000000000000000000000000000000000000000000000000000000000000000000000000000000000000000000000000000000000000000000000000000000000000000000000000000000000000000000000000000000F50000000000000000000000000000000000000000000000000000000000000000000000
310
00000000000000000000000000000000000000000000000000000000000000000000000000000000000000000000000000000000000000000000000000000000000000000000000000000000000000000000000000000000000000000000000000000000000000000000000000000000000000000000000000000000F50000
310
000000000000000000000000000000000000000000000000000000000000000000000000000000000000000000000000000000000000000000000000000000000000000000000000000000000000000000000000000000000000000000F5002828282828282828282828282828282828282828282828282828282828282828
310
28282828282828282828282828282828282828282828282828282828282828282828282828282828282828282828282828282828282828282D2D2D2D28F528282828282D2D2D2D2DF5ECECECECECF528282828282828282828282828282828282828282828F5282828282828282828282828282828282828282828282800F5
310
0000000000000000000000000000000000000000000000000000000000000000000000000000000000000000000000000000000000000000000000000000000000000000000000000000000000000000000000000000000000000000000000F500280000000000000000000000000000000000000000000000000000000000
310
000000000000000000000000000000000000000000000000000000000000000000000000000000000000000000000000000000000000000000280000000000F50000000000F500000000F50000000000F5000000000000000000000000000000000000000000002D2D2D2D2D2D2D2D2D2D2D2D2D2D2D2D2D2D2D2D2D2D2D28
310
00F50000000000000000000000000000000000000000000000000000000000000000000000000000000000000000000000000000000000000000000000000000000000000000000000000000000000000000000000000000000000000000000000F50028000000000000000000000000000000000000000000000000000000
310
0000000000000000000000000000000000000000000000000000000000000000000000000000000000000000000000000000000000000000000000282D2D2D2DF5F5ECECECECF52D2D2D2D2DF5ECECECECECF50000000000000000002D2D2D2D0000000000000000002D2D2D2D2D2D2D2D2D2D2D2D2D2D2D2D2D2D2D2D2D2D
310
2D2800F50000000000000000000000000000000000000000000000000000000000000000000000000000000000000000000000000000000000000000000000000000000000000000000000000000000000000000000000000000000000000000000000F5002800000000000000000000000000000000000000000000000000
310
00000000000000000000000000000000000000000000000000000000000000000000000000000000000000000000000000000000000000000000000000280000000000F50000000000F500000000F50000000000F50000000000000000002D2D2D2D000000000000000000F500000000000000000000000000000000000000
310
0000002800F50000000000000000000000000000000000000000000000000000000000000000000000000000000000000000000000000000000000000000000000000000000000000000000000000000000000000000000000000000000000000000000000F500280000000000000000000000000000000000000000000000
310
000000000000000000000000000000000000000000000000000000000000000000000000000000000000000000000000000000000000000000000000000000282D2D2D2DF5F5ECECECECF52D2D2D2D2DF5F5F5F5F5F5F500000000000000000000000000000000000000000000F500000000002D000000000000000000002D
310
2D000000002800F50000000000000000000000000000000000000000000000000000000000000000000000000000000000000000000000000000000000000000000000000000000000000000000000000000000000000000000000000000000000000000000000F50028000000000000000000000000000000000000000000
310
000000000000000000000000000000000000000000000000000000000000000000000000000000000000000000000000000000000000000000000000000000000028F5F5F5F5F5F5F5F5F5F5F5F5F5F5F5F5F5F5F5F5F5F5F500000000000000000000000000000000000000000000F5F52D2D2D2D2D2D2D2DF5F5F52D2D2D
310
2D2D2D2D2DF5F5F500F50000000000000000000000000000000000000000000000000000000000000000000000000000000000000000000000000000000000000000000000000000000000000000000000000000000000000000000000000000000000000000000000F5002800000000000000000000000000000000000000
310
00000000000000000000000000000000000000000000000000000000000000000000000000000000000000000000000000000000000000000000000000000000000000282D2D2D2D00F500ECEC0000F52D2D2D2DF5ECECECECECF500000000000000000000000000000000000000000000F52D2D0000000000000000F50000
310
000000000000002D2D2800F50000000000000000000000000000000000000000000000000000000000000000000000000000000000000000000000000000000000000000000000000000000000000000000000000000000000000000000000000000000000000000000000F500280000000000000000000000000000000000
310
00000000000000000000000000000000000000000000000000000000000000000000000000000000000000000000000000000000000000000000000000000000000000000028F5F5F5F5F5F5F5F5F5F5F5F5F5F5F5F5F5F5F5F5F5F5F5F5F5F5F5F5F5F5F5F5F5F5F5F5F5F5F5F5F5F5F5F5F5F52D2DF5F5F5F5F5F5F5F52D
310
2DF5F5F52D2D2DF5F52D2DF500F50000000000000000000000000000000000000000000000000000000000000000000000000000000000000000000000000000000000000000000000000000000000000000000000000000000000000000000000000000000000000000000000F50028000000000000000000000000000000
310
00000000000000000000000000000000000000000000000000000000000000000000000000000000000000000000000000000000000000000000000000000000000000000000002D2D2DF52D2DF52D2D2D2D2D2D2DF52D2D2D2DF52D2D2DF50000000000000000002D2D2D2D000000000000000000F52D2DF50000F50000F5
310
002D2D0000F52D2D2D00F52D2D2800F50000000000000000000000000000000000000000000000000000000000000000000000000000000000000000000000000000000000000000000000000000000000000000000000000000000000000000000000000000000000000000000000F5002800000000000000000000000000
310
0000000000000000000000000000000000000000000000000000000000000000000000000000000000000000000000000000000000000000000000000000000000000000000000000028F5F5F5F5F5F5F5F5F5F5F5F5F5F5F5F5F5F5F5F5F5F5F50000000000000000002D2D2D2D000000000000000000F50000F50000F500
310
00F50000000000F500000000F500002800F50000000000000000000000000000000000000000000000000000000000000000000000000000000000000000000000000000000000000000000000000000000000000000000000000000000000000000000000000000000000000000000000F500280000000000000000000000
310
000000000000000000000000000000000000000000000000000000000000000000000000000000000000000000000000000000000000000000000000000000000000000000000000000000280000F50000F500000000000000F500000000F5000000F500000000000000000000000000000000000000000000F52D2D2D2D2D
310
2D2DF5F52D2D2D2D2DF52D2D2D2D2D2D2DF500F50000000000000000000000000000000000000000000000000000000000000000000000000000000000000000000000000000000000000000000000000000000000000000000000000000000000000000000000000000000000000000000000F50028000000000000000000
310
000000000000000000000000000000000000000000000000000000000000000000000000000000000000000000000000000000000000000000000000000000000000000000000000000000000028F5F5F5F5F5F5F5F5F5F5F5F5F5F5F5F5F5F5F5F5F5F5F500000000000000002D2D2D2D2D000000000000000000F5F5F5F5
310
F5F5F5F5F5F5F5F5F5F5F5F5F5F5F5F5F5F5F5F500F50000000000000000000000000000000000000000000000000000000000000000000000000000000000000000000000000000000000000000000000000000000000000000000000000000000000000000000000000000000000000000000000F5002800000000000000
310
00000000000000000000000000000000000000000000000000000000000000000000000000000000000000000000000000000000000000000000000000000000000000000000000000000000000000280000F50000F500000000000000F500000000F5000000F500000000000000002D2D2D2D2D000000000000000000F500
310
0000000000000000000000000000000000000000002800F50000000000000000000000000000000000000000000000000000000000000000000000000000000000000000000000000000000000000000000000000000000000000000000000000000000000000000000000000000000000000000000000F500280000000000
310
00000000000000000000000000000000000000000000000000000000000000000000000000000000000000000000000000000000000000000000000000000000000000000000000000000000000000000028F5F5F5F5F5F5F5F5F5F5F5F5F5F5F5F5F5F5F5F5F5F5F500000000000000002D2D2D2D2D000000000000000000
310
F500002D2D2D2D2D2D2D2D2D2D2D2D2D2D2D00000000002800F50000000000000000000000000000000000000000000000000000000000000000000000000000000000000000000000000000000000000000000000000000000000000000000000000000000000000000000000000000000000000000000000F50028000000
310
0000000000000000000000000000000000000000000000000000000000000000000000000000000000000000000000000000000000000000000000000000000000000000000000000000000000000000000000280000F50000F500000000000000F500000000F5000000F50000000000000000000000000000000000000000
310
0000F500002D2D2D2D2D2D2D2D2D2D2D2D2D2D2D00000000002800F50000000000000000000000000000000000000000000000000000000000000000000000000000000000000000000000000000000000000000000000000000000000000000000000000000000000000000000000000000000000000000000000F5002800
310
0000000000000000000000000000000000000000000000000000000000000000000000000000000000000000000000000000000000000000000000000000000000000000000000000000000000000000000000000028F5F5F5F5F5F5F5F5F5F5F5F5F5F5F5F5F5F5F5F5F5F5F5000000000000000000000000000000000000
310
00000000F5000000000000000000000000000000000000000000002800F50000000000000000000000000000000000000000000000000000000000000000000000000000000000000000000000000000000000000000000000000000000000000000000000000000000000000000000000000000000000000000000000F500
310
280000000000000000000000000000000000000000000000000000000000000000000000000000000000000000000000000000000000000000000000000000000000000000000000000000000000000000000000000000280000F50000F500000000000000F500000000F5000000F500000000000000000000000000000000
310
000000000000F5000000000000000000000000000000000000000000002800F50000000000000000000000000000000000000000000000000000000000000000000000000000000000000000000000000000000000000000000000000000000000000000000000000000000000000000000000000000000000000000000000
310
F500280000000000000000000000000000000000000000000000000000000000000000000000000000000000000000000000000000000000000000000000000000000000000000000000000000000000000000000000000000282828F52828F528282828282828F528282828F5282828F52828282828282828282828282828
310
2828282828282828F5282828282828282828282828282828282828282828282800F5000000000000000000000000000000000000000000000000000000000000000000000000000000000000000000000000000000000000000000000000000000000000000000000000000000000000000000000000000000000000000000
310
0000F500280000000000000000000000000000000000000000000000000000000000000000000000000000000000000000000000000000000000000000000000000000000000000000000000000000000000000000000000000000000000000000000000000000000000000000000000000000000000000000000000000000
310
0000000000000000000000000000000000000000000000000000000000000000002800F500000000000000000000000000000000000000000000000000000000000000000000000000000000000000000000000000000000000000000000000000000000000000000000000000000000000000000000000000000000000000
310
00000000F50028000000000000000000000000000000000000000000000000000000000000000000000000000000000000000000000000000000000000000000000000000000000000000000000000000000000000000000000000000000000000000000000000000000000000000000000000000000000000000000000000
310
00000000000000000000000000000000000000000000000000000000000000000000002800F50000000000000000000000000000000000000000000000000000000000000000000000000000000000000000000000000000000000000000000000000000000000000000000000000000000000000000000000000000000000
310
000000000000F5002800000000000000000000000000000000000000000000000000000000000000000000000000000000000000000000000000000000000000000000000000000000000000000000000000000000000000000000000000000000000000000000000000000000000000000000000000000000000000000000
310
000000000000000000000000000000000000000000000000000000000000000000000000002800F5000000000000000000000000000000000000000000000000000000000000000000000000000000000000000000000000000000000000000000000000000000000000000000000000000000000000000000000000000000
310
0000000000000000F500280000000000000000000000000000000000000000000000000000000000000000000000000000000000000000000000000000000000000000000000000000000000000000000000000000000000000000000000000000000000000000000000000000000000000000000000000000000000000000
310
0000000000000000000000000000000000000000000000000000000000000000000000000000002800F500000000000000000000000000000000000000000000000000000000000000000000000000000000000000000000000000000000000000000000000000000000000000000000000000000000000000000000000000
310
00000000000000000000F50028000000000000000000000000000000000000000000000000000000000000000000000000000000000000000000000000000000000000000000000000000000000000000000000000000000000000000000000000000000000000000000000000000000000000000000000000000000000000
310
00000000000000000000000000000000000000000000000000000000000000000000000000000000002800F50000000000000000000000000000000000000000000000000000000000000000000000000000000000000000000000000000000000000000000000000000000000000000000000000000000000000000000000
310
000000000000000000000000F5002800000000000000000000000000000000000000000000000000000000000000000000000000000000000000000000000000000000000000000000000000000000000000000000000000000000000000000000000000000000000000000000000000000000000000000000000000000000
310
000000000000000000000000000000000000000000000000000000000000000000000000000000000000002800F5000000000000000000000000000000000000000000000000000000000000000000000000000000000000000000000000000000000000000000000000000000000000000000000000000000000000000000
310
0000000000000000000000000000F500280000000000000000000000000000000000000000000000000000000000000000000000000000000000000000000000000000000000000000000000000000000000000000000000000000000000000000000000000000000000000000000000000000000000000000000000000000
310
0000000000000000000000000000000000000000000000000000000000000000000000000000000000000000002800F500000000000000000000000000000000000000000000000000000000000000000000000000000000000000000000000000000000000000000000000000000000000000000000000000000000000000
310
00000000000000000000000000000000F50028000000000000000000000000000000000000000000000000000000000000000000000000000000000000000000000000000000000000000000000000000000000000000000000000000000000000000000000000000000000000000000000000000000000000000000000000
310
00000000000000000000000000000000000000000000000000000000000000000000000000000000000000000000002800F50000000000000000000000000000000000000000000000000000000000000000000000000000000000000000000000000000000000000000000000000000000000000000000000000000000000
310
000000000000000000000000000000000000F5002800000000000000000000000000000000000000000000000000000000000000000000000000000000000000000000000000000000000000000000000000000000000000000000000000000000000000000000000000000000000000000000000000000000000000000000
310
000000000000000000000000000000000000000000000000000000000000000000000000000000000000000000000000002800F5000000000000000000000000000000000000000000000000000000000000000000000000000000000000000000000000000000000000000000000000000000000000000000000000000000
310
0000000000000000000000000000000000000000F500280000000000000000000000000000000000000000000000000000000000000000000000000000000000000000000000000000000000000000000000000000000000000000000000000000000000000000000000000000000000000000000000000000000000000000
310
0000000000000000000000000000000000000000000000000000000000000000000000000000000000000000000000000000002800F500000000000000000000000000000000000000000000000000000000000000000000000000000000000000000000000000000000000000000000000000000000000000000000000000
310
00000000000000000000000000000000000000000000F50028000000000000000000000000000000000000000000000000000000000000000000000000000000000000000000000000000000000000000000000000000000000000000000000000000000000000000000000000000000000000000000000000000000000000
310
00000000000000000000000000000000000000000000000000000000000000000000000000000000000000000000000000000000002800F50000000000000000000000000000000000000000000000000000000000000000000000000000000000000000000000000000000000000000000000000000000000000000000000
310
000000000000000000000000000000000000000000000000F5002800000000000000000000000000000000000000000000000000000000000000000000000000000000000000000000000000000000000000000000000000000000000000000000000000000000000000000000000000000000000000000000000000000000
310
000000000000000000000000000000000000000000000000000000000000000000000000000000000000000000000000000000000000002800F5000000000000000000000000000000000000000000000000000000000000000000000000000000000000000000000000000000000000000000000000000000000000000000
310
0000000000000000000000000000000000000000000000000000F500280000000000000000000000000000000000000000000000000000000000000000000000000000000000000000000000000000000000000000000000000000000000000000000000000000000000000000000000000000000000000000000000000000
310
0000000000000000000000000000000000000000000000000000000000000000000000000000000000000000000000000000000000000000002800F500000000000000000000000000000000000000000000000000000000000000000000000000000000000000000000000000000000000000000000000000000000000000
310
00000000000000000000000000000000000000000000000000000000F50028000000000000000000000000000000000000000000000000000000000000000000000000000000000000000000000000000000000000000000000000000000000000000000000000000000000000000000000000000000000000000000000000
310
00000000000000000000000000000000000000000000000000000000000000000000000000000000000000000000000000000000000000000000002800F50000000000000000000000000000000000000000000000000000000000000000000000000000000000000000000000000000000000000000000000000000000000
310
000000000000000000000000000000000000000000000000000000000000F5002800000000000000000000000000000000000000000000000000000000000000000000000000000000000000000000000000000000000000000000000000000000000000000000000000000000000000000000000000000000000000000000
310
000000000000000000000000000000000000000000000000000000000000000000000000000000000000000000000000000000000000000000000000002800F5000000000000000000000000000000000000000000000000000000000000000000000000000000000000000000000000000000000000000000000000000000
310
0000000000000000000000000000000000000000000000000000000000000000F500280000000000000000000000000000000000000000000000000000000000000000000000000000000000000000000000000000000000000000000000000000000000000000000000000000000000000000000000000000000000000000
310
0000000000000000000000000000000000000000000000000000000000000000000000000000000000000000000000000000000000000000000000000000002800F500000000000000000000000000000000000000000000000000000000000000000000000000000000000000000000000000000000000000000000000000
310
00000000000000000000000000000000000000000000000000000000000000000000F50028000000000000000000000000000000000000000000000000000000000000000000000000000000000000000000000000000000000000000000000000000000000000000000000000000000000000000000000000000000000000
310
00000000000000000000000000000000000000000000000000000000000000000000000000000000000000000000000000000000000000000000000000000000002800F50000000000000000000000000000000000000000000000000000000000000000000000000000000000000000000000000000000000000000000000
310
000000000000000000000000000000000000000000000000000000000000000000000000F5002800000000000000000000000000000000000000000000000000000000000000000000000000000000000000000000000000000000000000000000000000000000000000000000000000000000000000000000000000000000
310
000000000000000000000000000000000000000000000000000000000000000000000000000000000000000000000000000000000000000000000000000000000000002800F5000000000000000000000000000000000000000000000000000000000000000000000000000000000000000000000000000000000000000000
310
0000000000000000000000000000000000000000000000000000000000000000000000000000F500280000000000000000000000000000000000000000000000000000000000000000000000000000000000000000000000000000000000000000000000000000000000000000000000000000000000000000000000000000
310
0000000000000000000000000000000000000000000000000000000000000000000000000000000000000000000000000000000000000000000000000000000000000000002800F500000000000000000000000000000000000000000000000000000000000000000000000000000000000000000000000000000000000000
310
00000000000000000000000000000000000000000000000000000000000000000000000000000000F50028000000000000000000000000000000000000000000000000000000000000000000000000000000000000000000000000000000000000000000000000000000000000000000000000000000000000000000000000
310
00000000000000000000000000000000000000000000000000000000000000000000000000000000000000000000000000000000000000000000000000000000000000000000002800F50000000000000000000000000000000000000000000000000000000000000000000000000000000000000000000000000000000000
310
000000000000000000000000000000000000000000000000000000000000000000000000000000000000F5002800000000000000000000000000000000000000000000000000000000000000000000000000000000000000000000000000000000000000000000000000000000000000000000000000000000000000000000
310
000000000000000000000000000000000000000000000000000000000000000000000000000000000000000000000000000000000000000000000000000000000000000000000000002800F5000000000000000000000000000000000000000000000000000000000000000000000000000000000000000000000000000000
310
0000000000000000000000000000000000000000000000000000000000000000000000000000000000000000F500280000000000000000000000000000000000000000000000000000000000000000000000000000000000000000000000000000000000000000000000000000000000000000000000000000000000000000
310
0000000000000000000000000000000000000000000000000000000000000000000000000000000000000000000000000000000000000000000000000000000000000000000000000000002800F500000000000000000000000000000000000000000000000000000000000000000000000000000000000000000000000000
310
00000000000000000000000000000000000000000000000000000000000000000000000000000000000000000000F50028000000000000000000000000000000000000000000000000000000000000000000000000000000000000000000000000000000000000000000000000000000000000000000000000000000000000
310
00000000000000000000000000000000000000000000000000000000000000000000000000000000000000000000000000000000000000000000000000000000000000000000000000000000002800F50000000000000000000000000000000000000000000000000000000000000000000000000000000000000000000000
310
000000000000000000000000000000000000000000000000000000000000000000000000000000000000000000000000F5002800000000000000000000000000000000000000000000000000000000000000000000000000000000000000000000000000000000000000000000000000000000000000000000000000000000
310
000000000000000000000000000000000000000000000000000000000000000000000000000000000000000000000000000000000000000000000000000000000000000000000000000000000000002800F5000000000000000000000000000000000000000000000000000000000000000000000000000000000000000000
310
0000000000000000000000000000000000000000000000000000000000000000000000000000000000000000000000000000F500280000000000000000000000000000000000000000000000000000000000000000000000000000000000000000000000000000000000000000000000000000000000000000000000000000
310
0000000000000000000000000000000000000000000000000000000000000000000000000000000000000000000000000000000000000000000000000000000000000000000000000000000000000000002800F500000000000000000000000000000000000000000000000000000000000000000000000000000000000000
310
00000000000000000000000000000000000000000000000000000000000000000000000000000000000000000000000000000000F50028000000000000000000000000000000000000000000000000000000000000000000000000000000000000000000000000000000000000000000000000000000000000000000000000
310
00000000000000000000000000000000000000000000000000000000000000000000000000000000000000000000000000000000000000000000000000000000000000000000000000000000000000000000002800F50000000000000000000000000000000000000000000000000000000000000000000000000000000000
310
000000000000000000000000000000000000000000000000000000000000000000000000000000000000000000000000000000000000F5002800000000000000000000000000000000000000000000000000000000000000000000000000000000000000000000000000000000000000000000000000000000000000000000
310
000000000000000000000000000000000000000000000000000000000000000000000000000000000000000000000000000000000000000000000000000000000000000000000000000000000000000000000000002800F5000000000000000000000000000000000000000000000000000000000000000000000000000000
310
0000000000000000000000000000000000000000000000000000000000000000000000000000000000000000000000000000000000000000F500280000000000000000000000000000000000000000000000000000000000000000000000000000000000000000000000000000000000000000000000000000000000000000
310
0000000000000000000000000000000000000000000000000000000000000000000000000000000000000000000000000000000000000000000000000000000000000000000000000000000000000000000000000000002800F500000000000000000000000000000000000000000000000000000000000000000000000000
310
00000000000000000000000000000000000000000000000000000000000000000000000000000000000000000000000000000000000000000000F50028000000000000000000000000000000000000000000000000000000000000000000000000000000000000000000000000000000000000000000000000000000000000
310
00000000000000000000000000000000000000000000000000000000000000000000000000000000000000000000000000000000000000000000000000000000000000000000000000000000000000000000000000000000002800F50000000000000000000000000000000000000000000000000000000000000000000000
310
000000000000000000000000000000000000000000000000000000000000000000000000000000000000000000000000000000000000000000000000F5002800000000000000000000000000000000000000000000000000000000000000000000000000000000000000000000000000000000000000000000000000000000
310
000000000000000000000000000000000000000000000000000000000000000000000000000000000000000000000000000000000000000000000000000000000000000000000000000000000000000000000000000000000000002800F5000000000000000000000000000000000000000000000000000000000000000000
310
0000000000000000000000000000000000000000000000000000000000000000000000000000000000000000000000000000000000000000000000000000F500280000000000000000000000000000000000000000000000000000000000000000000000000000000000000000000000000000000000000000000000000000
310
0000000000000000000000000000000000000000000000000000000000000000000000000000000000000000000000000000000000000000000000000000000000000000000000000000000000000000000000000000000000000000002800F500000000000000000000000000000000000000000000000000000000000000
310
00000000000000000000000000000000000000000000000000000000000000000000000000000000000000000000000000000000000000000000000000000000F50028000000000000000000000000000000000000000000000000000000000000000000000000000000000000000000000000000000000000000000000000
310
00000000000000000000000000000000000000000000000000000000000000000000000000000000000000000000000000000000000000000000000000000000000000000000000000000000000000000000000000000000000000000000002800F50000000000000000000000000000000000000000000000000000000000
310
000000000000000000000000000000000000000000000000000000000000000000000000000000000000000000000000000000000000000000000000000000000000F5002800000000000000000000000000000000000000000000000000000000000000000000000000000000000000000000000000000000000000000000
310
000000000000000000000000000000000000000000000000000000000000000000000000000000000000000000000000000000000000000000000000000000000000000000000000000000000000000000000000000000000000000000000000002800F5000000000000000000000000000000000000000000000000000000
310
0000000000000000000000000000000000000000000000000000000000000000000000000000000000000000000000000000000000000000000000000000000000000000F500280000000000000000000000000000000000000000000000000000000000000000000000000000000000000000000000000000000000000000
310
0000000000000000000000000000000000000000000000000000000000000000000000000000000000000000000000000000000000000000000000000000000000000000000000000000000000000000000000000000000000000000000000000000002800F500000000000000000000000000000000000000000000000000
310
00000000000000000000000000000000000000000000000000000000000000000000000000000000000000000000000000000000000000000000000000000000000000000000F50028000000000000000000000000000000000000000000000000000000000000000000000000000000000000000000000000000000000000
310
00000000000000000000000000000000000000000000000000000000000000000000000000000000000000000000000000000000000000000000000000000000000000000000000000000000000000000000000000000000000000000000000000000000002800F50000000000000000000000000000000000000000000000
310
000000000000000000000000000000000000000000000000000000000000000000000000000000000000000000000000000000000000000000000000000000000000000000000000F5002800000000000000000000000000000000000000000000000000000000000000000000000000000000000000000000000000000000
310
000000000000000000000000000000000000000000000000000000000000000000000000000000000000000000000000000000000000000000000000000000000000000000000000000000000000000000000000000000000000000000000000000000000000002800F5000000000000000000000000000000000000000000
310
0000000000000000000000000000000000000000000000000000000000000000000000000000000000000000000000000000000000000000000000000000000000000000000000000000F500280000000000000000000000000000000000000000000000000000000000000000000000000000000000000000000000000000
310
0000000000000000000000000000000000000000000000000000000000000000000000000000000000000000000000000000000000000000000000000000000000000000000000000000000000000000000000000000000000000000000000000000000000000000002800F500000000000000000000000000000000000000
310
00000000000000000000000000000000000000000000000000000000000000000000000000000000000000000000000000000000000000000000000000000000000000000000000000000000F50028000000000000000000000000000000000000000000000000000000000000000000000000000000000000000000000000
310
00000000000000000000000000000000000000000000000000000000000000000000000000000000000000000000000000000000000000000000000000000000000000000000000000000000000000000000000000000000000000000000000000000000000000000000002800F50000000000000000000000000000000000
310
000000000000000000000000000000000000000000000000000000000000000000000000000000000000000000000000000000000000000000000000000000000000000000000000000000000000F5002800000000000000000000000000000000000000000000000000000000000000000000000000000000000000000000
310
000000000000000000000000000000000000000000000000000000000000000000000000000000000000000000000000000000000000000000000000000000000000000000000000000000000000000000000000000000000000000000000000000000000000000000000000002800F5000000000000000000000000000000
310
0000000000000000000000000000000000000000000000000000000000000000000000000000000000000000000000000000000000000000000000000000000000000000000000000000000000000000F500280000000000000000000000000000000000000000000000000000000000000000000000000000000000000000
310
0000000000000000000000000000000000000000000000000000000000000000000000000000000000000000000000000000000000000000000000000000000000000000000000000000000000000000000000000000000000000000000000000000000000000000000000000000002800F500000000000000000000000000
310
00000000000000000000000000000000000000000000000000000000000000000000000000000000000000000000000000000000000000000000000000000000000000000000000000000000000000000000F50028000000000000000000000000000000000000000000000000000000000000000000000000000000000000
310
00000000000000000000000000000000000000000000000000000000000000000000000000000000000000000000000000000000000000000000000000000000000000000000000000000000000000000000000000000000000000000000000000000000000000000000000000000000002800F50000000000000000000000
310
000000000000000000000000000000000000000000000000000000000000000000000000000000000000000000000000000000000000000000000000000000000000000000000000000000000000000000000000F5002800000000000000000000000000000000000000000000000000000000000000000000000000000000
310
000000000000000000000000000000000000000000000000000000000000000000000000000000000000000000000000000000000000000000000000000000000000000000000000000000000000000000000000000000000000000000000000000000000000000000000000000000000000002800F5000000000000000000
310
0000000000000000000000000000000000000000000000000000000000000000000000000000000000000000000000000000000000000000000000000000000000000000000000000000000000000000000000000000F500280000000000000000000000000000000000000000000000000000000000000000000000000000
310
0000000000000000000000000000000000000000000000000000000000000000000000000000000000000000000000000000000000000000000000000000000000000000000000000000000000000000000000000000000000000000000000000000000000000000000000000000000000000000002800F500000000000000
310
00000000000000000000000000000000000000000000000000000000000000000000000000000000000000000000000000000000000000000000000000000000000000000000000000000000000000000000000000000000F50028000000000000000000000000000000000000000000000000000000000000000000000000
310
00000000000000000000000000000000000000000000000000000000000000000000000000000000000000000000000000000000000000000000000000000000000000000000000000000000000000000000000000000000000000000000000000000000000000000000000000000000000000000000002800F50000000000
310
000000000000000000000000000000000000000000000000000000000000000000000000000000000000000000000000000000000000000000000000000000000000000000000000000000000000000000000000000000000000F5002800000000000000000000000000000000000000000000000000000000000000000000
310
000000000000000000000000000000000000000000000000000000000000000000000000000000000000000000000000000000000000000000000000000000000000000000000000000000000000000000000000000000000000000000000000000000000000000000000000000000000000000000000000002800F5000000
310
0000000000000000000000000000000000000000000000000000000000000000000000000000000000000000000000000000000000000000000000000000000000000000000000000000000000000000000000000000000000000000F500280000000000000000000000000000000000000000000000000000000000000000
310
0000000000000000000000000000000000000000000000000000000000000000000000000000000000000000000000000000000000000000000000000000000000000000000000000000000000000000000000000000000000000000000000000000000000000000000000000000000000000000000000000000002800F500
310
00000000000000000000000000000000000000000000000000000000000000000000000000000000000000000000000000000000000000000000000000000000000000000000000000000000000000000000000000000000000000000000F50028000000000000000000000000000000000000000000000000000000000000
310
00000000000000000000000000000000000000000000000000000000000000000000000000000000000000000000000000000000000000000000000000000000000000000000000000000000000000000000000000000000000000000000000000000000000000000000000000000000000000000000000000000000002800
310
F50000000000000000000000000000000000000000000000000000000000000000000000000000000000000000000000000000000000000000000000000000000000000000000000000000000000000000000000000000000000000000000000F5002800000000000000000000000000000000000000000000000000000000
310
00000000000000000000000000000000000000000000000000000000000000000000000000000000000000000000000000000000000000000000000000000000000000000000000000000000000000000000000000000000000000000000000000000000000000000000000000000000000000000000000000000000000000
310
2800F50000000000000000000000000000000000000000000000000000000000000000000000000000000000000000000000000000000000000000000000000000000000000000000000000000000000000000000000000000000000000000000000F500280000000000000000000000000000000000000000000000000000
310
00000000000000000000000000000000000000000000000000000000000000000000000000000000000000000000000000000000000000000000000000000000000000000000000000000000000000000000000000000000000000000000000000000000000000000000000000000000000000000000000000000000000000
310
00002800F50000000000000000000000000000000000000000000000000000000000000000000000000000000000000000000000000000000000000000000000000000000000000000000000000000000000000000000000000000000000000000000000F50028000000000000000000000000000000000000000000000000
310
00000000000000000000000000000000000000000000000000000000000000000000000000000000000000000000000000000000000000000000000000000000000000000000000000000000000000000000000000000000000000000000000000000000000000000000000000000000000000000000000000000000000000
310
000000002800F50000000000000000000000000000000000000000000000000000000000000000000000000000000000000000000000000000000000000000000000000000000000000000000000000000000000000000000000000000000000000000000000F5002800000000000000000000000000000000000000000000
310
00000000000000000000000000000000000000000000000000000000000000000000000000000000000000000000000000000000000000000000000000000000000000000000000000000000000000000000000000000000000000000000000000000000000000000000000000000000000000000000000000000000000000
310
0000000000002800F50000000000000000000000000000000000000000000000000000000000000000000000000000000000000000000000000000000000000000000000000000000000000000000000000000000000000000000000000000000000000000000000F500280000000000000000000000000000000000000000
310
00000000000000000000000000000000000000000000000000000000000000000000000000000000000000000000000000000000000000000000000000000000000000000000000000000000000000000000000000000000000000000000000000000000000000000000000000000000000000000000000000000000000000
310
00000000000000002800F50000000000000000000000000000000000000000000000000000000000000000000000000000000000000000000000000000000000000000000000000000000000000000000000000000000000000000000000000000000000000000000000F50028000000000000000000000000000000000000
310
00000000000000000000000000000000000000000000000000000000000000000000000000000000000000000000000000000000000000000000000000000000000000000000000000000000000000000000000000000000000000000000000000000000000000000000000000000000000000000000000000000000000000
310
000000000000000000002800F50000000000000000000000000000000000000000000000000000000000000000000000000000000000000000000000000000000000000000000000000000000000000000000000000000000000000000000000000000000000000000000000F5002800000000000000000000000000000000
310
00000000000000000000000000000000000000000000000000000000000000000000000000000000000000000000000000000000000000000000000000000000000000000000000000000000000000000000000000000000000000000000000000000000000000000000000000000000000000000000000000000000000000
310
0000000000000000000000002800F50000000000000000000000000000000000000000000000000000000000000000000000000000000000000000000000000000000000000000000000000000000000000000000000000000000000000000000000000000000000000000000000F500280000000000000000000000000000
310
00000000000000000000000000000000000000000000000000000000000000000000000000000000000000000000000000000000000000000000000000000000000000000000000000000000000000000000000000000000000000000000000000000000000000000000000000000000000000000000000000000000000000
310
00000000000000000000000000002800F50000000000000000000000000000000000000000000000000000000000000000000000000000000000000000000000000000000000000000000000000000000000000000000000000000000000000000000000000000000000000000000000F50028000000000000000000000000
310
00000000000000000000000000000000000000000000000000000000000000000000000000000000000000000000000000000000000000000000000000000000000000000000000000000000000000000000000000000000000000000000000000000000000000000000000000000000000000000000000000000000000000
310
000000000000000000000000000000002800F50000000000000000000000000000000000000000000000000000000000000000000000000000000000000000000000000000000000000000000000000000000000000000000000000000000000000000000000000000000000000000000000F5002800000000000000000000
310
00000000000000000000000000000000000000000000000000000000000000000000000000000000000000000000000000000000000000000000000000000000000000000000000000000000000000000000000000000000000000000000000000000000000000000000000000000000000000000000000000000000000000
310
0000000000000000000000000000000000002800F50000000000000000000000000000000000000000000000000000000000000000000000000000000000000000000000000000000000000000000000000000000000000000000000000000000000000000000000000000000000000000000000F500280000000000000000
310
00000000000000000000000000000000000000000000000000000000000000000000000000000000000000000000000000000000000000000000000000000000000000000000000000000000000000000000000000000000000000000000000000000000000000000000000000000000000000000000000000000000000000
310
00000000000000000000000000000000000000002800F50000000000000000000000000000000000000000000000000000000000000000000000000000000000000000000000000000000000000000000000000000000000000000000000000000000000000000000000000000000000000000000000F50028000000000000
310
00000000000000000000000000000000000000000000000000000000000000000000000000000000000000000000000000000000000000000000000000000000000000000000000000000000000000000000000000000000000000000000000000000000000000000000000000000000000000000000000000000000000000
310
000000000000000000000000000000000000000000002800F50000000000000000000000000000000000000000000000000000000000000000000000000000000000000000000000000000000000000000000000000000000000000000000000000000000000000000000000000000000000000000000000F5002800000000
310
00000000000000000000000000000000000000000000000000000000000000000000000000000000000000000000000000000000000000000000000000000000000000000000000000000000000000000000000000000000000000000000000000000000000000000000000000000000000000000000000000000000000000
310
0000000000000000000000000000000000000000000000002800F50000000000000000000000000000000000000000000000000000000000000000000000000000000000000000000000000000000000000000000000000000000000000000000000000000000000000000000000000000000000000000000000F500280000
310
00000000000000000000000000000000000000000000000000000000000000000000000000000000000000000000000000000000000000000000000000000000000000000000000000000000000000000000000000000000000000000000000000000000000000000000000000000000000000000000000000000000000000
310
00000000000000000000000000000000000000000000000000002800F50000000000000000000000000000000000000000000000000000000000000000000000000000000000000000000000000000000000000000000000000000000000000000000000000000000000000000000000000000000000000000000000F50028
310
00000000000000000000000000000000000000000000000000000000000000000000000000000000000000000000000000000000000000000000000000000000000000000000000000000000000000000000000000000000000000000000000000000000000000000000000000000000000000000000000000000000000000
310
000000000000000000000000000000000000000000000000000000002800F50000000000000000000000000000000000000000000000000000000000000000000000000000000000000000000000000000000000000000000000000000000000000000000000000000000000000000000000000000000000000000000000F5
310
00280000000000000000000000000000000000000000000000000000000000000000000000000000000000000000000000000000000000000000000000000000000000000000000000000000000000000000000000000000000000000000000000000000000000000000000000000000000000000000000000000000000000
310
0000000000000000000000000000000000000000000000000000000000002800F500000000000000000000000000000000000000000000000000000000000000000000000000000000000000000000000000000000000000000000000000000000000000000000000000000000000000000000000000000000000000000000
310
00F50028000000000000000000000000000000000000000000000000000000000000000000000000000000000000000000000000000000000000000000000000000000000000000000000000000000000000000000000000000000000000000000000000000000000000000000000000000000000000000000000000000000
310
00000000000000000000000000000000000000000000000000000000000000002800F50000000000000000000000000000000000000000000000000000000000000000000000000000000000000000000000000000000000000000000000000000000000000000000000000000000000000000000000000000000000000000
310
000000F5002800000000000000000000000000000000000000000000000000000000000000000000000000000000000000000000000000000000000000000000000000000000000000000000000000000000000000000000000000000000000000000000000000000000000000000000000000000000000000000000000000
310
000000000000000000000000000000000000000000000000000000000000000000002800F5000000000000000000000000000000000000000000000000000000000000000000000000000000000000000000000000000000000000000000000000000000000000000000000000000000000000000000000000000000000000
310
0000000000F500280000000000000000000000000000000000000000000000000000000000000000000000000000000000000000000000000000000000000000000000000000000000000000000000000000000000000000000000000000000000000000000000000000000000000000000000000000000000000000000000
310
0000000000000000000000000000000000000000000000000000000000000000000000002800F500000000000000000000000000000000000000000000000000000000000000000000000000000000000000000000000000000000000000000000000000000000000000000000000000000000000000000000000000000000
310
00000000000000F50028000000000000000000000000000000000000000000000000000000000000000000000000000000000000000000000000000000000000000000000000000000000000000000000000000000000000000000000000000000000000000000000000000000000000000000000000000000000000000000
310
00000000000000000000000000000000000000000000000000000000000000000000000000002800F50000000000000000000000000000000000000000000000000000000000000000000000000000000000000000000000000000000000000000000000000000000000000000000000000000000000000000000000000000
310
000000000000000000F5002800000000000000000000000000000000000000000000000000000000000000000000000000000000000000000000000000000000000000000000000000000000000000000000000000000000000000000000000000000000000000000000000000000000000000000000000000000000000000
310
000000000000000000000000000000000000000000000000000000000000000000000000000000002800F5000000000000000000000000000000000000000000000000000000000000000000000000000000000000000000000000000000000000000000000000000000000000000000000000000000000000000000000000
310
0000000000000000000000F500280000000000000000000000000000000000000000000000000000000000000000000000000000000000000000000000000000000000000000000000000000000000000000000000000000000000000000000000000000000000000000000000000000000000000000000000000000000000
310
0000000000000000000000000000000000000000000000000000000000000000000000000000000000002800F500000000000000000000000000000000000000000000000000000000000000000000000000000000000000000000000000000000000000000000000000000000000000000000000000000000000000000000
310
00000000000000000000000000F50028000000000000000000000000000000000000000000000000000000000000000000000000000000000000000000000000000000000000000000000000000000000000000000000000000000000000000000000000000000000000000000000000000000000000000000000000000000
310
00000000000000000000000000000000000000000000000000000000000000000000000000000000000000002800F50000000000000000000000000000000000000000000000000000000000000000000000000000000000000000000000000000000000000000000000000000000000000000000000000000000000000000
310
000000000000000000000000000000F5002800000000000000000000000000000000000000000000000000000000000000000000000000000000000000000000000000000000000000000000000000000000000000000000000000000000000000000000000000000000000000000000000000000000000000000000000000
310
000000000000000000000000000000000000000000000000000000000000000000000000000000000000000000002800F5000000000000000000000000000000000000000000000000000000000000000000000000000000000000000000000000000000000000000000000000000000000000000000000000000000000000
310
0000000000000000000000000000000000F500280000000000000000000000000000000000000000000000000000000000000000000000000000000000000000000000000000000000000000000000000000000000000000000000000000000000000000000000000000000000000000000000000000000000000000000000
310
0000000000000000000000000000000000000000000000000000000000000000000000000000000000000000000000002800F500000000000000000000000000000000000000000000000000000000000000000000000000000000000000000000000000000000000000000000000000000000000000000000000000000000
310
00000000000000000000000000000000000000F50028000000000000000000000000000000000000000000000000000000000000000000000000000000000000000000000000000000000000000000000000000000000000000000000000000000000000000000000000000000000000000000000000000000000000000000
310
00000000000000000000000000000000000000000000000000000000000000000000000000000000000000000000000000002800F50000000000000000000000000000000000000000000000000000000000000000000000000000000000000000000000000000000000000000000000000000000000000000000000000000
310
000000000000000000000000000000000000000000F5002800000000000000000000000000000000000000000000000000000000000000000000000000000000000000000000000000000000000000000000000000000000000000000000000000000000000000000000000000000000000000000000000000000000000000
310
000000000000000000000000000000000000000000000000000000000000000000000000000000000000000000000000000000002800F5000000000000000000000000000000000000000000000000000000000000000000000000000000000000000000000000000000000000000000000000000000000000000000000000
310
0000000000000000000000000000000000000000000000F500280000000000000000000000000000000000000000000000000000000000000000000000000000000000000000000000000000000000000000000000000000000000000000000000000000000000000000000000000000000000000000000000000000000000
310
0000000000000000000000000000000000000000000000000000000000000000000000000000000000000000000000000000000000002800F500000000000000000000000000000000000000000000000000000000000000000000000000000000000000000000000000000000000000000000000000000000000000000000
310
00000000000000000000000000000000000000000000000000F50028000000000000000000000000000000000000000000000000000000000000000000000000000000000000000000000000000000000000000000000000000000000000000000000000000000000000000000000000000000000000000000000000000000
310
00000000000000000000000000000000000000000000000000000000000000000000000000000000000000000000000000000000000000002800F50000000000000000000000000000000000000000000000000000000000000000000000000000000000000000000000000000000000000000000000000000000000000000
310
000000000000000000000000000000000000000000000000000000F5002800000000000000000000000000000000000000000000000000000000000000000000000000000000000000000000000000000000000000000000000000000000000000000000000000000000000000000000000000000000000000000000000000
310
000000000000000000000000000000000000000000000000000000000000000000000000000000000000000000000000000000000000000000002800F5000000000000000000000000000000000000000000000000000000000000000000000000000000000000000000000000000000000000000000000000000000000000
310
0000000000000000000000000000000000000000000000000000000000F500280000000000000000000000000000000000000000000000000000000000000000000000000000000000000000000000000000000000000000000000000000000000000000000000000000000000000000000000000000000000000000000000
310
0000000000000000000000000000000000000000000000000000000000000000000000000000000000000000000000000000000000000000000000002800F500000000000000000000000000000000000000000000000000000000000000000000000000000000000000000000000000000000000000000000000000000000
310
00000000000000000000000000000000000000000000000000000000000000F50028000000000000000000000000000000000000000000000000000000000000000000000000000000000000000000000000000000000000000000000000000000000000000000000000000000000000000000000000000000000000000000
310
00000000000000000000000000000000000000000000000000000000000000000000000000000000000000000000000000000000000000000000000000002800F50000000000000000000000000000000000000000000000000000000000000000000000000000000000000000000000000000000000000000000000000000
310
000000000000000000000000000000000000000000000000000000000000000000F5002800000000000000000000000000000000000000000000000000000000000000000000000000000000000000000000000000000000000000000000000000000000000000000000000000000000000000000000000000000000000000
310
000000000000000000000000000000000000000000000000000000000000000000000000000000000000000000000000000000000000000000000000000000002800F5000000000000000000000000000000000000000000000000000000000000000000000000000000000000000000000000000000000000000000000000
310
0000000000000000000000000000000000000000000000000000000000000000000000F500280000000000000000000000000000000000000000000000000000000000000000000000000000000000000000000000000000000000000000000000000000000000000000000000000000000000000000000000000000000000
310
0000000000000000000000000000000000000000000000000000000000000000000000000000000000000000000000000000000000000000000000000000000000002800F500000000000000000000000000000000000000000000000000000000000000000000000000000000000000000000000000000000000000000000
310
00000000000000000000000000000000000000000000000000000000000000000000000000F50028000000000000000000000000000000000000000000000000000000000000000000000000000000000000000000000000000000000000000000000000000000000000000000000000000000000000000000000000000000
310
00000000000000000000000000000000000000000000000000000000000000000000000000000000000000000000000000000000000000000000000000000000000000002800F50000000000000000000000000000000000000000000000000000000000000000000000000000000000000000000000000000000000000000
310
000000000000000000000000000000000000000000000000000000000000000000000000000000F5002800000000000000000000000000000000000000000000000000000000000000000000000000000000000000000000000000000000000000000000000000000000000000000000000000000000000000000000000000
310
000000000000000000000000000000000000000000000000000000000000000000000000000000000000000000000000000000000000000000000000000000000000000000002800F5000000000000000000000000000000000000000000000000000000000000000000000000000000000000000000000000000000000000
310
0000000000000000000000000000000000000000000000000000000000000000000000000000000000F500280000000000000000000000000000000000000000000000000000000000000000000000000000000000000000000000000000000000000000000000000000000000000000000000000000000000000000000000
310
0000000000000000000000000000000000000000000000000000000000000000000000000000000000000000000000000000000000000000000000000000000000000000000000002800F500000000000000000000000000000000000000000000000000000000000000000000000000000000000000000000000000000000
310
00000000000000000000000000000000000000000000000000000000000000000000000000000000000000F50028000000000000000000000000000000000000000000000000000000000000000000000000000000000000000000000000000000000000000000000000000000000000000000000000000000000000000000
310
00000000000000000000000000000000000000000000000000000000000000000000000000000000000000000000000000000000000000000000000000000000000000000000000000002800F50000000000000000000000000000000000000000000000000000000000000000000000000000000000000000000000000000
310
000000000000000000000000000000000000000000000000000000000000000000000000000000000000000000F5002828282828282828282828282828282828282828282828280000000000000000000000000000000000000000000000000000000000000000000000000000000000000000000000000000000000000000
310
000000000000000000000000000000000000000000000000000000000000000000000000000000000000000000000000000000000000000000000000000000000000000000000000000000002800F5000000000000000000000000000000000000000000000000000000000000000000000000000000000000000000000000
310
0000000000000000000000000000000000000000000000000000000000000000000000000000000000000000000000F5002800002D2D2D2D2D2D2D2D2D2D2D2D2D2D2D2D2D00000028000000000000000000000000000000000000000000000000000000000000000000000000000000000000000000000000000000000000
310
0000000000000000000000000000000000000000000000000000000000000000000000000000000000000000000000000000000000000000000000000000000000000000000000000000000000002800F500000000000000000000000000000000000000000000000000000000000000000000000000000000000000000000
310
00000000000000000000000000000000000000000000000000000000000000000000000000000000000000000000000000F5002800002D2D2D2D2D2D2D2D2D2D2D2D2D2D2D2D2D0000002800000000000000000000000000000000000000000000000000000000000000000000000000000000000000000000000000000000
310
00000000000000000000000000000000000000000000000000000000000000000000000000000000000000000000000000000000000000000000000000000000000000000000000000000000000000002800F50000000000000000000000000000000000000000000000000000000000000000000000000000000000000000
310
000000000000000000000000000000000000000000000000000000000000000000000000000000000000000000000000000000F5002800002D2D2D2D2D2D2D2D2D2D2D2D2D2D2D2D2D000000280000000000000000000000000000000000000000000000000000000000000000000000000000000000000000000000000000
310
000000000000000000000000000000000000000000000000000000000000000000000000000000000000000000000000000000000000000000000000000000000000000000000000000000000000000000002800F5000000000000000000000000000000000000000000000000000000000000000000000000000000000000
310
0000000000000000000000000000000000000000000000000000000000000000000000000000000000000000000000000000000000F500280000000000000000000000000000000000000000000028000000000000000000000000000000000000000000000000000000000000000000000000000000000000000000000000
310
0000000000000000000000000000000000000000000000000000000000000000000000000000000000000000000000000000000000000000000000000000000000000000000000000000000000000000000000002800F500000000000000000000000000000000000000000000000000000000000000000000000000000000
310
00000000000000000000000000000000000000000000000000000000000000000000000000000000000000000000000000000000000000F50028282828282828282828282828282828282828282828282828282828282828282828282828282828282828282828282828282828282828282828282828282828282828282828
310
28282828282828282828282828282828282828282828282828282828282828282828282828282828282828282828282828282828282828282828282828282828282828282828282828282828282828282828282828282800F50000000000000000000000000000000000000000000000000000000000000000000000000000
310
000000000000000000000000000000000000000000000000000000000000000000000000000000000000000000000000000000000000000000F5000000000000000000000000000000000000000000000000000000000000000000000000000000000000000000000000000000000000000000000000000000000000000000
310
000000000000000000000000000000000000000000000000000000000000000000000000000000000000000000000000000000000000000000000000000000000000000000000000000000000000000000000000000000000000F5000000000000000000000000000000000000000000000000000000000000000000000000
310
0000000000000000000000000000000000000000000000000000000000000000000000000000000000000000000000000000000000000000000000F5F5F5F5F5F5F5F5F5F5F5F5F5F5F5F5F5F5F5F5F5F5F5F5F5F5F5F5F5F5F5F5F5F5F5F5F5F5F5F5F5F5F5F5F5F5F5F5F5F5F5F5F5F5F5F5F5F5F5F5F5F5F5F5F5F5F5F5
310
F5F5F5F5F5F5F5F5F5F5F5F5F5F5F5F5F5F5F5F5F5F5F5F5F5F5F5F5F5F5F5F5F5F5F5F5F5F5F5F5F5F5F5F5F5F5F5F5F5F5F5F5F5F5F5F5F5F5F5F5F5F5F5F5F5F5F5F5F5F5F5F5F5F5F5F5F5F5F5F5F5F5F5F5F5F5F5F5F5F5F5F5F500000000000000000000000000000000000000000000000000000000000000000000
310
00000000000000000000000000000000000000000000000000000000000000000000000000000000000000000000000000000000000000000000000000000000000000000000000000000000000000000000000000000000000000000000000000000000000000000000000000000000000000000000000000000000000000
310
00000000000000000000000000000000000000000000000000000000000000000000000000000000000000000000000000000000000000000000000000000000000000000000000000000000000000000000000000000000000000000000000000000000000000000000000000000000000000000000000000000000000000
310
00000000000000000000000000000000000000000000000000000000000000000000000000000000000000000000000000000000000000000000000000000000000000000000000000000000000000000000000000000000000000000000000000000000000000000000000000000000000000000000000000000000000000
310
00000000000000000000000000000000000000000000000000000000000000000000000000000000000000000000000000000000000000000000000000000000000000000000000000000000000000000000000000000000000000000000000000000000000000000000000000000000000000000000000000000000000000
310
00000000000000000000000000000000000000000000000000000000000000000000000000000000000000000000000000000000000000000000000000000000000000000000000000000000000000000000000000000000000000000000000000000000000000000000000000000000000000000000000000000000000000
310
00000000000000000000000000000000000000000000000000000000000000000000000000000000000000000000000000000000000000000000000000000000000000000000000000000000000000000000000000000000000000000000000000000000000000000000000000000000000000000000000000000000000000
310
00000000000000000000000000000000000000000000000000000000000000000000000000000000000000000000000000000000000000000000000000000000000000000000000000000000000000000000000000000000000000000000000000000000000000000000000000000000000000000000000000000000000000
310
00000000000000000000000000000000000000000000000000000000000000000000000000000000000000000000000000000000000000000000000000000000000000000000000000000000000000000000000000000000000000000000000000000000000000000000000000000000000000000000000000000000000000
310
00000000000000000000000000000000000000000000000000000000000000000000000000000000000000000000000000000000000000000000000000000000000000000000000000000000000000000000000000000000000000000000000000000000000000000000000000000000000000000000000000000000000000
310
00000000000000000000000000000000000000000000000000000000000000000000000000000000000000000000000000000000000000000000000000000000000000000000000000000000000000000000000000000000000000000000000000000000000000000000000000000000000000000000000000000000000000
310
00000000000000000000000000000000000000000000000000000000000000000000000000000000000000000000000000000000000000000000000000000000000000000000000000000000000000000000000000000000000000000000000000000000000000000000000000000000000000000000000000000000000000
310
00000000000000000000000000000000000000000000000000000000000000000000000000000000000000000000000000000000000000000000000000000000000000000000000000000000000000000000000000000000000000000000000000000000000000000000000000000000000000000000000000000000000000
310
00000000000000000000000000000000000000000000000000000000000000000000
  0
XRECORD
  5
4445
102
{ACAD_REACTORS
330
4444
102
}
330
4444
100
AcDbXrecord
280
     1
102
MATERIAL
148
0.0
149
0.0
149
0.0
 93
        0
 94
       63
282
     0
 72
     1
 77
     1
171
     1
175
     1
179
     1
273
     0
  0
XRECORD
  5
4447
102
{ACAD_REACTORS
330
4446
102
}
330
4446
100
AcDbXrecord
280
     1
102
MATERIAL
148
0.0
149
0.0
149
0.0
 93
        0
 94
       63
282
     0
 72
     1
 77
     1
171
     1
175
     1
179
     1
273
     0
  0
XRECORD
  5
4443
102
{ACAD_REACTORS
330
4442
102
}
330
4442
100
AcDbXrecord
280
     1
102
MATERIAL
148
0.0
149
0.0
149
0.0
 93
        0
 94
       63
282
     0
 72
     1
 77
     1
171
     1
175
     1
179
     1
273
     0
  0
ACAD_PROXY_OBJECT
  5
3C9E
102
{ACAD_REACTORS
330
1C38
102
}
330
1C38
100
AcDbProxyObject
 90
      499
 91
      512
 95
  6815769
 70
     0
 93
     5304
310
40D054060020000020000003200101A000080002A5058000000C10000000000000006101010000000000003E0FC000000000000F83F0000000000003E0FC000000000000F83F02B5E8DC0F42B1CFC0AD7A3703D0AC73F419019018000000C1003FBFFFFFE02B5E8DC0F42A9CFD029018000000C1003FBFFFFFE02B5E8DC0F4
310
2A9CFD049018000000C1003FBFFFFFE02B5E8DC0F42A9CFD089018000000C1003FBFFFFFE02B5E8DC0F42A9CFD109018000000C1003FBFFFFFE02B5E8DC0F42A9CFD209018000000C1003FBFFFFFE02B5E8DC0F42A9CFD01405075F5449544C450041501A8000000C800406800020000A94160000003040000000000000012
310
40404000000000000F83F0000000000003E0FC000000000000F83F0000000000003E0FC0AD7A3703D0AC73F02B5E8DC0F42B1CFD0640640600000030400FEFFFFFF80AD7A3703D0AA73F40A40600000030400FEFFFFFF80AD7A3703D0AA73F41240600000030400FEFFFFFF80AD7A3703D0AA73F42240600000030400FEFFF
310
FFF80AD7A3703D0AA73F44240600000030400FEFFFFFF80AD7A3703D0AA73F48240600000030400FEFFFFFF80AD7A3703D0AA73F409014217D2115051115480105406A0000003200101A000080002A5028000000C10000000000000004901010000000000003E0FC000000000000F83F0000000000003E0FC000000000000F
310
83F02B5E8DC0F42B1CFC0AD7A3703D0AC73F419019018000000C1003FBFFFFFE02B5E8DC0F42A9CFD029018000000C1003FBFFFFFE02B5E8DC0F42A9CFD049018000000C1003FBFFFFFE02B5E8DC0F42A9CFD089018000000C1003FBFFFFFE02B5E8DC0F42A9CFD109018000000C1003FBFFFFFE02B5E8DC0F42A9CFD20901
310
8000000C1003FBFFFFFE02B5E8DC0F42A9CFD03409065F444154410005
340
11
340
0
340
0
340
0
340
0
340
0
340
0
340
11
340
0
340
0
340
0
340
0
340
0
340
0
340
11
340
0
340
0
340
0
340
0
340
0
340
0
 94
        0
  0
XRECORD
  5
4448
102
{ACAD_REACTORS
330
1C38
102
}
330
1C38
100
AcDbXrecord
280
     1
102
ACAD_ROUNDTRIP_PRE2007_TABLESTYLE
 90
      512
 91
        0
  1

 92
      512
 93
        0
  2

 94
      512
 95
        0
  3

  0
XRECORD
  5
3CB2
102
{ACAD_REACTORS
330
3CB1
102
}
330
3CB1
100
AcDbXrecord
280
     1
102
RTVSPropertyOp0
 70
     1
102
RTVSPropertyOp1
 70
     1
102
RTVSPropertyOp2
 70
     1
102
RTVSPropertyOp3
 70
     1
102
RTVSPropertyOp4
 70
     1
102
RTVSPropertyOp5
 70
     1
102
RTVSPropertyOp6
 70
     1
102
RTVSPropertyOp7
 70
     1
102
RTVSPropertyOp8
 70
     1
102
RTVSPropertyOp9
 70
     1
102
RTVSPropertyOp10
 70
     1
102
RTVSPropertyOp11
 70
     1
102
RTVSPropertyOp12
 70
     1
102
RTVSPropertyOp13
 70
     1
102
RTVSPropertyOp14
 70
     1
102
RTVSPropertyOp15
 70
     1
102
RTVSPropertyOp16
 70
     1
102
RTVSPropertyOp17
 70
     1
102
RTVSPropertyOp18
 70
     1
102
RTVSPropertyOp19
 70
     1
102
RTVSPropertyOp20
 70
     1
102
RTVSPropertyOp21
 70
     1
102
RTVSPropertyOp22
 70
     1
102
RTVSPropertyOp23
 70
     1
102
RTVSPropertyOp24
 70
     1
102
RTVSPropertyOp25
 70
     1
102
RTVSPropertyOp26
 70
     1
102
RTVSPropertyOp27
 70
     1
102
RTVSPropertyOp28
 70
     1
102
RTVSPropertyOp29
 70
     1
102
RTVSPropertyOp30
 70
     1
102
RTVSPropertyOp31
 70
     1
102
RTVSPropertyOp32
 70
     1
  0
XRECORD
  5
3CB6
102
{ACAD_REACTORS
330
3CB5
102
}
330
3CB5
100
AcDbXrecord
280
     1
102
RTVSPropertyOp0
 70
     1
102
RTVSPropertyOp1
 70
     1
102
RTVSPropertyOp2
 70
     1
102
RTVSPropertyOp3
 70
     1
102
RTVSPropertyOp4
 70
     1
102
RTVSPropertyOp5
 70
     1
102
RTVSPropertyOp6
 70
     1
102
RTVSPropertyOp7
 70
     1
102
RTVSPropertyOp8
 70
     1
102
RTVSPropertyOp9
 70
     1
102
RTVSPropertyOp10
 70
     1
102
RTVSPropertyOp11
 70
     1
102
RTVSPropertyOp12
 70
     1
102
RTVSPropertyOp13
 70
     1
102
RTVSPropertyOp14
 70
     1
102
RTVSPropertyOp15
 70
     1
102
RTVSPropertyOp16
 70
     1
102
RTVSPropertyOp17
 70
     1
102
RTVSPropertyOp18
 70
     1
102
RTVSPropertyOp19
 70
     1
102
RTVSPropertyOp20
 70
     1
102
RTVSPropertyOp21
 70
     1
102
RTVSPropertyOp22
 70
     1
102
RTVSPropertyOp23
 70
     1
102
RTVSPropertyOp24
 70
     1
102
RTVSPropertyOp25
 70
     1
102
RTVSPropertyOp26
 70
     1
102
RTVSPropertyOp27
 70
     1
102
RTVSPropertyOp28
 70
     1
102
RTVSPropertyOp29
 70
     1
102
RTVSPropertyOp30
 70
     1
102
RTVSPropertyOp31
 70
     1
102
RTVSPropertyOp32
 70
     1
  0
XRECORD
  5
3CB4
102
{ACAD_REACTORS
330
3CB3
102
}
330
3CB3
100
AcDbXrecord
280
     1
102
RTVSPropertyOp0
 70
     1
102
RTVSPropertyOp1
 70
     1
102
RTVSPropertyOp2
 70
     1
102
RTVSPropertyOp3
 70
     1
102
RTVSPropertyOp4
 70
     1
102
RTVSPropertyOp5
 70
     1
102
RTVSPropertyOp6
 70
     1
102
RTVSPropertyOp7
 70
     1
102
RTVSPropertyOp8
 70
     1
102
RTVSPropertyOp9
 70
     1
102
RTVSPropertyOp10
 70
     1
102
RTVSPropertyOp11
 70
     1
102
RTVSPropertyOp12
 70
     1
102
RTVSPropertyOp13
 70
     1
102
RTVSPropertyOp14
 70
     1
102
RTVSPropertyOp15
 70
     1
102
RTVSPropertyOp16
 70
     1
102
RTVSPropertyOp17
 70
     1
102
RTVSPropertyOp18
 70
     1
102
RTVSPropertyOp19
 70
     1
102
RTVSPropertyOp20
 70
     1
102
RTVSPropertyOp21
 70
     1
102
RTVSPropertyOp22
 70
     1
102
RTVSPropertyOp23
 70
     1
102
RTVSPropertyOp24
 70
     1
102
RTVSPropertyOp25
 70
     1
102
RTVSPropertyOp26
 70
     1
102
RTVSPropertyOp27
 70
     1
102
RTVSPropertyOp28
 70
     1
102
RTVSPropertyOp29
 70
     1
102
RTVSPropertyOp30
 70
     1
102
RTVSPropertyOp31
 70
     1
102
RTVSPropertyOp32
 70
     1
  0
XRECORD
  5
3CB0
102
{ACAD_REACTORS
330
3CAF
102
}
330
3CAF
100
AcDbXrecord
280
     1
102
RTVSPropertyOp0
 70
     1
102
RTVSPropertyOp1
 70
     1
102
RTVSPropertyOp2
 70
     1
102
RTVSPropertyOp3
 70
     1
102
RTVSPropertyOp4
 70
     1
102
RTVSPropertyOp5
 70
     1
102
RTVSPropertyOp6
 70
     1
102
RTVSPropertyOp7
 70
     1
102
RTVSPropertyOp8
 70
     1
102
RTVSPropertyOp9
 70
     1
102
RTVSPropertyOp10
 70
     1
102
RTVSPropertyOp11
 70
     1
102
RTVSPropertyOp12
 70
     1
102
RTVSPropertyOp13
 70
     1
102
RTVSPropertyOp14
 70
     1
102
RTVSPropertyOp15
 70
     1
102
RTVSPropertyOp16
 70
     1
102
RTVSPropertyOp17
 70
     1
102
RTVSPropertyOp18
 70
     1
102
RTVSPropertyOp19
 70
     1
102
RTVSPropertyOp20
 70
     1
102
RTVSPropertyOp21
 70
     1
102
RTVSPropertyOp22
 70
     1
102
RTVSPropertyOp23
 70
     1
102
RTVSPropertyOp24
 70
     1
102
RTVSPropertyOp25
 70
     1
102
RTVSPropertyOp26
 70
     1
102
RTVSPropertyOp27
 70
     1
102
RTVSPropertyOp28
 70
     1
102
RTVSPropertyOp29
 70
     1
102
RTVSPropertyOp30
 70
     1
102
RTVSPropertyOp31
 70
     1
102
RTVSPropertyOp32
 70
     1
  0
XRECORD
  5
3CBE
102
{ACAD_REACTORS
330
3CBD
102
}
330
3CBD
100
AcDbXrecord
280
     1
102
RTVSPropertyOp0
 70
     1
102
RTVSPropertyOp1
 70
     1
102
RTVSPropertyOp2
 70
     1
102
RTVSPropertyOp3
 70
     1
102
RTVSPropertyOp4
 70
     1
102
RTVSPropertyOp5
 70
     1
102
RTVSPropertyOp6
 70
     1
102
RTVSPropertyOp7
 70
     1
102
RTVSPropertyOp8
 70
     1
102
RTVSPropertyOp9
 70
     1
102
RTVSPropertyOp10
 70
     1
102
RTVSPropertyOp11
 70
     1
102
RTVSPropertyOp12
 70
     1
102
RTVSPropertyOp13
 70
     1
102
RTVSPropertyOp14
 70
     1
102
RTVSPropertyOp15
 70
     1
102
RTVSPropertyOp16
 70
     1
102
RTVSPropertyOp17
 70
     1
102
RTVSPropertyOp18
 70
     1
102
RTVSPropertyOp19
 70
     1
102
RTVSPropertyOp20
 70
     1
102
RTVSPropertyOp21
 70
     1
102
RTVSPropertyOp22
 70
     1
102
RTVSPropertyOp23
 70
     1
102
RTVSPropertyOp24
 70
     1
102
RTVSPropertyOp25
 70
     1
102
RTVSPropertyOp26
 70
     1
102
RTVSPropertyOp27
 70
     1
102
RTVSPropertyOp28
 70
     1
102
RTVSPropertyOp29
 70
     1
102
RTVSPropertyOp30
 70
     1
102
RTVSPropertyOp31
 70
     1
102
RTVSPropertyOp32
 70
     1
  0
XRECORD
  5
3CC6
102
{ACAD_REACTORS
330
3CC5
102
}
330
3CC5
100
AcDbXrecord
280
     1
102
RTVSPropertyOp0
 70
     1
102
RTVSPropertyOp1
 70
     1
102
RTVSPropertyOp2
 70
     1
102
RTVSPropertyOp3
 70
     1
102
RTVSPropertyOp4
 70
     1
102
RTVSPropertyOp5
 70
     1
102
RTVSPropertyOp6
 70
     1
102
RTVSPropertyOp7
 70
     1
102
RTVSPropertyOp8
 70
     1
102
RTVSPropertyOp9
 70
     1
102
RTVSPropertyOp10
 70
     1
102
RTVSPropertyOp11
 70
     1
102
RTVSPropertyOp12
 70
     1
102
RTVSPropertyOp13
 70
     1
102
RTVSPropertyOp14
 70
     1
102
RTVSPropertyOp15
 70
     1
102
RTVSPropertyOp16
 70
     1
102
RTVSPropertyOp17
 70
     1
102
RTVSPropertyOp18
 70
     1
102
RTVSPropertyOp19
 70
     1
102
RTVSPropertyOp20
 70
     1
102
RTVSPropertyOp21
 70
     1
102
RTVSPropertyOp22
 70
     1
102
RTVSPropertyOp23
 70
     1
102
RTVSPropertyOp24
 70
     1
102
RTVSPropertyOp25
 70
     1
102
RTVSPropertyOp26
 70
     1
102
RTVSPropertyOp27
 70
     1
102
RTVSPropertyOp28
 70
     1
102
RTVSPropertyOp29
 70
     1
102
RTVSPropertyOp30
 70
     1
102
RTVSPropertyOp31
 70
     1
102
RTVSPropertyOp32
 70
     1
  0
XRECORD
  5
3CB8
102
{ACAD_REACTORS
330
3CB7
102
}
330
3CB7
100
AcDbXrecord
280
     1
102
RTVSPropertyOp0
 70
     1
102
RTVSPropertyOp1
 70
     1
102
RTVSPropertyOp2
 70
     1
102
RTVSPropertyOp3
 70
     1
102
RTVSPropertyOp4
 70
     1
102
RTVSPropertyOp5
 70
     1
102
RTVSPropertyOp6
 70
     1
102
RTVSPropertyOp7
 70
     1
102
RTVSPropertyOp8
 70
     1
102
RTVSPropertyOp9
 70
     1
102
RTVSPropertyOp10
 70
     1
102
RTVSPropertyOp11
 70
     1
102
RTVSPropertyOp12
 70
     1
102
RTVSPropertyOp13
 70
     1
102
RTVSPropertyOp14
 70
     1
102
RTVSPropertyOp15
 70
     1
102
RTVSPropertyOp16
 70
     1
102
RTVSPropertyOp17
 70
     1
102
RTVSPropertyOp18
 70
     1
102
RTVSPropertyOp19
 70
     1
102
RTVSPropertyOp20
 70
     1
102
RTVSPropertyOp21
 70
     1
102
RTVSPropertyOp22
 70
     1
102
RTVSPropertyOp23
 70
     1
102
RTVSPropertyOp24
 70
     1
102
RTVSPropertyOp25
 70
     1
102
RTVSPropertyOp26
 70
     1
102
RTVSPropertyOp27
 70
     1
102
RTVSPropertyOp28
 70
     1
102
RTVSPropertyOp29
 70
     1
102
RTVSPropertyOp30
 70
     1
102
RTVSPropertyOp31
 70
     1
102
RTVSPropertyOp32
 70
     1
  0
XRECORD
  5
3CBC
102
{ACAD_REACTORS
330
3CBB
102
}
330
3CBB
100
AcDbXrecord
280
     1
102
RTVSPropertyOp0
 70
     1
102
RTVSPropertyOp1
 70
     1
102
RTVSPropertyOp2
 70
     1
102
RTVSPropertyOp3
 70
     1
102
RTVSPropertyOp4
 70
     1
102
RTVSPropertyOp5
 70
     1
102
RTVSPropertyOp6
 70
     1
102
RTVSPropertyOp7
 70
     1
102
RTVSPropertyOp8
 70
     1
102
RTVSPropertyOp9
 70
     1
102
RTVSPropertyOp10
 70
     1
102
RTVSPropertyOp11
 70
     1
102
RTVSPropertyOp12
 70
     1
102
RTVSPropertyOp13
 70
     1
102
RTVSPropertyOp14
 70
     1
102
RTVSPropertyOp15
 70
     1
102
RTVSPropertyOp16
 70
     1
102
RTVSPropertyOp17
 70
     1
102
RTVSPropertyOp18
 70
     1
102
RTVSPropertyOp19
 70
     1
102
RTVSPropertyOp20
 70
     1
102
RTVSPropertyOp21
 70
     1
102
RTVSPropertyOp22
 70
     1
102
RTVSPropertyOp23
 70
     1
102
RTVSPropertyOp24
 70
     1
102
RTVSPropertyOp25
 70
     1
102
RTVSPropertyOp26
 70
     1
102
RTVSPropertyOp27
 70
     1
102
RTVSPropertyOp28
 70
     1
102
RTVSPropertyOp29
 70
     1
102
RTVSPropertyOp30
 70
     1
102
RTVSPropertyOp31
 70
     1
102
RTVSPropertyOp32
 70
     1
  0
XRECORD
  5
3CCD
102
{ACAD_REACTORS
330
3CCC
102
}
330
3CCC
100
AcDbXrecord
280
     1
102
RTVSPropertyOp0
 70
     0
102
RTVSPropertyOp1
 70
     0
102
RTVSPropertyOp2
 70
     0
102
RTVSPropertyOp3
 70
     0
102
RTVSPropertyOp4
 70
     0
102
RTVSPropertyOp5
 70
     0
102
RTVSPropertyOp6
 70
     0
102
RTVSPropertyOp7
 70
     0
102
RTVSPropertyOp8
 70
     0
102
RTVSPropertyOp9
 70
     0
102
RTVSPropertyOp10
 70
     0
102
RTVSPropertyOp11
 70
     0
102
RTVSPropertyOp12
 70
     0
102
RTVSPropertyOp13
 70
     0
102
RTVSPropertyOp14
 70
     2
102
RTVSPropertyOp15
 70
     0
102
RTVSPropertyOp16
 70
     0
102
RTVSPropertyOp17
 70
     0
102
RTVSPropertyOp18
 70
     0
102
RTVSPropertyOp19
 70
     0
102
RTVSPropertyOp20
 70
     0
102
RTVSPropertyOp21
 70
     0
102
RTVSPropertyOp22
 70
     0
102
RTVSPropertyOp23
 70
     0
102
RTVSPropertyOp24
 70
     0
102
RTVSPropertyOp25
 70
     0
102
RTVSPropertyOp26
 70
     0
102
RTVSPropertyOp27
 70
     0
102
RTVSPropertyOp28
 70
     1
102
RTVSPropertyOp29
 70
     1
102
RTVSPropertyOp30
 70
     1
102
RTVSPropertyOp31
 70
     1
102
RTVSPropertyOp32
 70
     1
  0
XRECORD
  5
3CC4
102
{ACAD_REACTORS
330
3CC3
102
}
330
3CC3
100
AcDbXrecord
280
     1
102
RTVSPropertyOp0
 70
     1
102
RTVSPropertyOp1
 70
     1
102
RTVSPropertyOp2
 70
     1
102
RTVSPropertyOp3
 70
     1
102
RTVSPropertyOp4
 70
     1
102
RTVSPropertyOp5
 70
     1
102
RTVSPropertyOp6
 70
     1
102
RTVSPropertyOp7
 70
     1
102
RTVSPropertyOp8
 70
     1
102
RTVSPropertyOp9
 70
     1
102
RTVSPropertyOp10
 70
     1
102
RTVSPropertyOp11
 70
     1
102
RTVSPropertyOp12
 70
     1
102
RTVSPropertyOp13
 70
     1
102
RTVSPropertyOp14
 70
     1
102
RTVSPropertyOp15
 70
     1
102
RTVSPropertyOp16
 70
     1
102
RTVSPropertyOp17
 70
     1
102
RTVSPropertyOp18
 70
     1
102
RTVSPropertyOp19
 70
     1
102
RTVSPropertyOp20
 70
     1
102
RTVSPropertyOp21
 70
     1
102
RTVSPropertyOp22
 70
     1
102
RTVSPropertyOp23
 70
     1
102
RTVSPropertyOp24
 70
     1
102
RTVSPropertyOp25
 70
     1
102
RTVSPropertyOp26
 70
     1
102
RTVSPropertyOp27
 70
     1
102
RTVSPropertyOp28
 70
     1
102
RTVSPropertyOp29
 70
     1
102
RTVSPropertyOp30
 70
     1
102
RTVSPropertyOp31
 70
     1
102
RTVSPropertyOp32
 70
     1
  0
XRECORD
  5
3CA8
102
{ACAD_REACTORS
330
3CA7
102
}
330
3CA7
100
AcDbXrecord
280
     1
102
RTVSPropertyOp0
 70
     1
102
RTVSPropertyOp1
 70
     1
102
RTVSPropertyOp2
 70
     1
102
RTVSPropertyOp3
 70
     1
102
RTVSPropertyOp4
 70
     1
102
RTVSPropertyOp5
 70
     1
102
RTVSPropertyOp6
 70
     1
102
RTVSPropertyOp7
 70
     1
102
RTVSPropertyOp8
 70
     1
102
RTVSPropertyOp9
 70
     1
102
RTVSPropertyOp10
 70
     1
102
RTVSPropertyOp11
 70
     1
102
RTVSPropertyOp12
 70
     1
102
RTVSPropertyOp13
 70
     1
102
RTVSPropertyOp14
 70
     1
102
RTVSPropertyOp15
 70
     1
102
RTVSPropertyOp16
 70
     1
102
RTVSPropertyOp17
 70
     1
102
RTVSPropertyOp18
 70
     1
102
RTVSPropertyOp19
 70
     1
102
RTVSPropertyOp20
 70
     1
102
RTVSPropertyOp21
 70
     1
102
RTVSPropertyOp22
 70
     1
102
RTVSPropertyOp23
 70
     1
102
RTVSPropertyOp24
 70
     1
102
RTVSPropertyOp25
 70
     1
102
RTVSPropertyOp26
 70
     1
102
RTVSPropertyOp27
 70
     1
102
RTVSPropertyOp28
 70
     1
102
RTVSPropertyOp29
 70
     1
102
RTVSPropertyOp30
 70
     1
102
RTVSPropertyOp31
 70
     1
102
RTVSPropertyOp32
 70
     1
  0
XRECORD
  5
3CAA
102
{ACAD_REACTORS
330
3CA9
102
}
330
3CA9
100
AcDbXrecord
280
     1
102
RTVSPropertyOp0
 70
     1
102
RTVSPropertyOp1
 70
     1
102
RTVSPropertyOp2
 70
     1
102
RTVSPropertyOp3
 70
     1
102
RTVSPropertyOp4
 70
     1
102
RTVSPropertyOp5
 70
     1
102
RTVSPropertyOp6
 70
     1
102
RTVSPropertyOp7
 70
     1
102
RTVSPropertyOp8
 70
     1
102
RTVSPropertyOp9
 70
     1
102
RTVSPropertyOp10
 70
     1
102
RTVSPropertyOp11
 70
     1
102
RTVSPropertyOp12
 70
     1
102
RTVSPropertyOp13
 70
     1
102
RTVSPropertyOp14
 70
     1
102
RTVSPropertyOp15
 70
     1
102
RTVSPropertyOp16
 70
     1
102
RTVSPropertyOp17
 70
     1
102
RTVSPropertyOp18
 70
     1
102
RTVSPropertyOp19
 70
     1
102
RTVSPropertyOp20
 70
     1
102
RTVSPropertyOp21
 70
     1
102
RTVSPropertyOp22
 70
     1
102
RTVSPropertyOp23
 70
     1
102
RTVSPropertyOp24
 70
     1
102
RTVSPropertyOp25
 70
     1
102
RTVSPropertyOp26
 70
     1
102
RTVSPropertyOp27
 70
     1
102
RTVSPropertyOp28
 70
     1
102
RTVSPropertyOp29
 70
     1
102
RTVSPropertyOp30
 70
     1
102
RTVSPropertyOp31
 70
     1
102
RTVSPropertyOp32
 70
     1
  0
XRECORD
  5
3CAC
102
{ACAD_REACTORS
330
3CAB
102
}
330
3CAB
100
AcDbXrecord
280
     1
102
RTVSPropertyOp0
 70
     1
102
RTVSPropertyOp1
 70
     1
102
RTVSPropertyOp2
 70
     1
102
RTVSPropertyOp3
 70
     1
102
RTVSPropertyOp4
 70
     1
102
RTVSPropertyOp5
 70
     1
102
RTVSPropertyOp6
 70
     1
102
RTVSPropertyOp7
 70
     1
102
RTVSPropertyOp8
 70
     1
102
RTVSPropertyOp9
 70
     1
102
RTVSPropertyOp10
 70
     1
102
RTVSPropertyOp11
 70
     1
102
RTVSPropertyOp12
 70
     1
102
RTVSPropertyOp13
 70
     1
102
RTVSPropertyOp14
 70
     1
102
RTVSPropertyOp15
 70
     1
102
RTVSPropertyOp16
 70
     1
102
RTVSPropertyOp17
 70
     1
102
RTVSPropertyOp18
 70
     1
102
RTVSPropertyOp19
 70
     1
102
RTVSPropertyOp20
 70
     1
102
RTVSPropertyOp21
 70
     1
102
RTVSPropertyOp22
 70
     1
102
RTVSPropertyOp23
 70
     1
102
RTVSPropertyOp24
 70
     1
102
RTVSPropertyOp25
 70
     1
102
RTVSPropertyOp26
 70
     1
102
RTVSPropertyOp27
 70
     1
102
RTVSPropertyOp28
 70
     1
102
RTVSPropertyOp29
 70
     1
102
RTVSPropertyOp30
 70
     1
102
RTVSPropertyOp31
 70
     1
102
RTVSPropertyOp32
 70
     1
  0
XRECORD
  5
3CAE
102
{ACAD_REACTORS
330
3CAD
102
}
330
3CAD
100
AcDbXrecord
280
     1
102
RTVSPropertyOp0
 70
     1
102
RTVSPropertyOp1
 70
     1
102
RTVSPropertyOp2
 70
     1
102
RTVSPropertyOp3
 70
     1
102
RTVSPropertyOp4
 70
     1
102
RTVSPropertyOp5
 70
     1
102
RTVSPropertyOp6
 70
     1
102
RTVSPropertyOp7
 70
     1
102
RTVSPropertyOp8
 70
     1
102
RTVSPropertyOp9
 70
     1
102
RTVSPropertyOp10
 70
     1
102
RTVSPropertyOp11
 70
     1
102
RTVSPropertyOp12
 70
     1
102
RTVSPropertyOp13
 70
     1
102
RTVSPropertyOp14
 70
     1
102
RTVSPropertyOp15
 70
     1
102
RTVSPropertyOp16
 70
     1
102
RTVSPropertyOp17
 70
     1
102
RTVSPropertyOp18
 70
     1
102
RTVSPropertyOp19
 70
     1
102
RTVSPropertyOp20
 70
     1
102
RTVSPropertyOp21
 70
     1
102
RTVSPropertyOp22
 70
     1
102
RTVSPropertyOp23
 70
     1
102
RTVSPropertyOp24
 70
     1
102
RTVSPropertyOp25
 70
     1
102
RTVSPropertyOp26
 70
     1
102
RTVSPropertyOp27
 70
     1
102
RTVSPropertyOp28
 70
     1
102
RTVSPropertyOp29
 70
     1
102
RTVSPropertyOp30
 70
     1
102
RTVSPropertyOp31
 70
     1
102
RTVSPropertyOp32
 70
     1
  0
XRECORD
  5
3CD1
102
{ACAD_REACTORS
330
3CD0
102
}
330
3CD0
100
AcDbXrecord
280
     1
102
RTVSPropertyOp0
 70
     1
102
RTVSPropertyOp1
 70
     1
102
RTVSPropertyOp2
 70
     1
102
RTVSPropertyOp3
 70
     1
102
RTVSPropertyOp4
 70
     1
102
RTVSPropertyOp5
 70
     1
102
RTVSPropertyOp6
 70
     1
102
RTVSPropertyOp7
 70
     1
102
RTVSPropertyOp8
 70
     1
102
RTVSPropertyOp9
 70
     1
102
RTVSPropertyOp10
 70
     1
102
RTVSPropertyOp11
 70
     1
102
RTVSPropertyOp12
 70
     1
102
RTVSPropertyOp13
 70
     1
102
RTVSPropertyOp14
 70
     1
102
RTVSPropertyOp15
 70
     1
102
RTVSPropertyOp16
 70
     1
102
RTVSPropertyOp17
 70
     1
102
RTVSPropertyOp18
 70
     1
102
RTVSPropertyOp19
 70
     1
102
RTVSPropertyOp20
 70
     1
102
RTVSPropertyOp21
 70
     1
102
RTVSPropertyOp22
 70
     1
102
RTVSPropertyOp23
 70
     1
102
RTVSPropertyOp24
 70
     1
102
RTVSPropertyOp25
 70
     1
102
RTVSPropertyOp26
 70
     1
102
RTVSPropertyOp27
 70
     1
102
RTVSPropertyOp28
 70
     1
102
RTVSPropertyOp29
 70
     1
102
RTVSPropertyOp30
 70
     1
102
RTVSPropertyOp31
 70
     1
102
RTVSPropertyOp32
 70
     1
  0
XRECORD
  5
3CC9
102
{ACAD_REACTORS
330
3CC8
102
}
330
3CC8
100
AcDbXrecord
280
     1
102
RTVSPropertyOp0
 70
     0
102
RTVSPropertyOp1
 70
     0
102
RTVSPropertyOp2
 70
     0
102
RTVSPropertyOp3
 70
     0
102
RTVSPropertyOp4
 70
     0
102
RTVSPropertyOp5
 70
     0
102
RTVSPropertyOp6
 70
     0
102
RTVSPropertyOp7
 70
     0
102
RTVSPropertyOp8
 70
     0
102
RTVSPropertyOp9
 70
     0
102
RTVSPropertyOp10
 70
     0
102
RTVSPropertyOp11
 70
     0
102
RTVSPropertyOp12
 70
     0
102
RTVSPropertyOp13
 70
     0
102
RTVSPropertyOp14
 70
     2
102
RTVSPropertyOp15
 70
     0
102
RTVSPropertyOp16
 70
     0
102
RTVSPropertyOp17
 70
     0
102
RTVSPropertyOp18
 70
     0
102
RTVSPropertyOp19
 70
     0
102
RTVSPropertyOp20
 70
     0
102
RTVSPropertyOp21
 70
     0
102
RTVSPropertyOp22
 70
     0
102
RTVSPropertyOp23
 70
     0
102
RTVSPropertyOp24
 70
     0
102
RTVSPropertyOp25
 70
     0
102
RTVSPropertyOp26
 70
     0
102
RTVSPropertyOp27
 70
     0
102
RTVSPropertyOp28
 70
     1
102
RTVSPropertyOp29
 70
     1
102
RTVSPropertyOp30
 70
     1
102
RTVSPropertyOp31
 70
     1
102
RTVSPropertyOp32
 70
     1
  0
XRECORD
  5
3CC2
102
{ACAD_REACTORS
330
3CC1
102
}
330
3CC1
100
AcDbXrecord
280
     1
102
RTVSPropertyOp0
 70
     1
102
RTVSPropertyOp1
 70
     1
102
RTVSPropertyOp2
 70
     1
102
RTVSPropertyOp3
 70
     1
102
RTVSPropertyOp4
 70
     1
102
RTVSPropertyOp5
 70
     1
102
RTVSPropertyOp6
 70
     1
102
RTVSPropertyOp7
 70
     1
102
RTVSPropertyOp8
 70
     1
102
RTVSPropertyOp9
 70
     1
102
RTVSPropertyOp10
 70
     1
102
RTVSPropertyOp11
 70
     1
102
RTVSPropertyOp12
 70
     1
102
RTVSPropertyOp13
 70
     1
102
RTVSPropertyOp14
 70
     1
102
RTVSPropertyOp15
 70
     1
102
RTVSPropertyOp16
 70
     1
102
RTVSPropertyOp17
 70
     1
102
RTVSPropertyOp18
 70
     1
102
RTVSPropertyOp19
 70
     1
102
RTVSPropertyOp20
 70
     1
102
RTVSPropertyOp21
 70
     1
102
RTVSPropertyOp22
 70
     1
102
RTVSPropertyOp23
 70
     1
102
RTVSPropertyOp24
 70
     1
102
RTVSPropertyOp25
 70
     1
102
RTVSPropertyOp26
 70
     1
102
RTVSPropertyOp27
 70
     1
102
RTVSPropertyOp28
 70
     1
102
RTVSPropertyOp29
 70
     1
102
RTVSPropertyOp30
 70
     1
102
RTVSPropertyOp31
 70
     1
102
RTVSPropertyOp32
 70
     1
  0
XRECORD
  5
3CCB
102
{ACAD_REACTORS
330
3CCA
102
}
330
3CCA
100
AcDbXrecord
280
     1
102
RTVSPropertyOp0
 70
     0
102
RTVSPropertyOp1
 70
     0
102
RTVSPropertyOp2
 70
     0
102
RTVSPropertyOp3
 70
     0
102
RTVSPropertyOp4
 70
     0
102
RTVSPropertyOp5
 70
     0
102
RTVSPropertyOp6
 70
     0
102
RTVSPropertyOp7
 70
     0
102
RTVSPropertyOp8
 70
     0
102
RTVSPropertyOp9
 70
     0
102
RTVSPropertyOp10
 70
     0
102
RTVSPropertyOp11
 70
     0
102
RTVSPropertyOp12
 70
     0
102
RTVSPropertyOp13
 70
     0
102
RTVSPropertyOp14
 70
     2
102
RTVSPropertyOp15
 70
     0
102
RTVSPropertyOp16
 70
     0
102
RTVSPropertyOp17
 70
     0
102
RTVSPropertyOp18
 70
     0
102
RTVSPropertyOp19
 70
     0
102
RTVSPropertyOp20
 70
     0
102
RTVSPropertyOp21
 70
     0
102
RTVSPropertyOp22
 70
     0
102
RTVSPropertyOp23
 70
     0
102
RTVSPropertyOp24
 70
     0
102
RTVSPropertyOp25
 70
     0
102
RTVSPropertyOp26
 70
     0
102
RTVSPropertyOp27
 70
     0
102
RTVSPropertyOp28
 70
     1
102
RTVSPropertyOp29
 70
     1
102
RTVSPropertyOp30
 70
     1
102
RTVSPropertyOp31
 70
     1
102
RTVSPropertyOp32
 70
     1
  0
XRECORD
  5
3CBA
102
{ACAD_REACTORS
330
3CB9
102
}
330
3CB9
100
AcDbXrecord
280
     1
102
RTVSPropertyOp0
 70
     1
102
RTVSPropertyOp1
 70
     1
102
RTVSPropertyOp2
 70
     1
102
RTVSPropertyOp3
 70
     1
102
RTVSPropertyOp4
 70
     1
102
RTVSPropertyOp5
 70
     1
102
RTVSPropertyOp6
 70
     1
102
RTVSPropertyOp7
 70
     1
102
RTVSPropertyOp8
 70
     1
102
RTVSPropertyOp9
 70
     1
102
RTVSPropertyOp10
 70
     1
102
RTVSPropertyOp11
 70
     1
102
RTVSPropertyOp12
 70
     1
102
RTVSPropertyOp13
 70
     1
102
RTVSPropertyOp14
 70
     1
102
RTVSPropertyOp15
 70
     1
102
RTVSPropertyOp16
 70
     1
102
RTVSPropertyOp17
 70
     1
102
RTVSPropertyOp18
 70
     1
102
RTVSPropertyOp19
 70
     1
102
RTVSPropertyOp20
 70
     1
102
RTVSPropertyOp21
 70
     1
102
RTVSPropertyOp22
 70
     1
102
RTVSPropertyOp23
 70
     1
102
RTVSPropertyOp24
 70
     1
102
RTVSPropertyOp25
 70
     1
102
RTVSPropertyOp26
 70
     1
102
RTVSPropertyOp27
 70
     1
102
RTVSPropertyOp28
 70
     1
102
RTVSPropertyOp29
 70
     1
102
RTVSPropertyOp30
 70
     1
102
RTVSPropertyOp31
 70
     1
102
RTVSPropertyOp32
 70
     1
  0
XRECORD
  5
3CDB
102
{ACAD_REACTORS
330
3CDA
102
}
330
3CDA
100
AcDbXrecord
280
     1
102
RTVSPropertyOp0
 70
     1
102
RTVSPropertyOp1
 70
     1
102
RTVSPropertyOp2
 70
     1
102
RTVSPropertyOp3
 70
     1
102
RTVSPropertyOp4
 70
     1
102
RTVSPropertyOp5
 70
     1
102
RTVSPropertyOp6
 70
     1
102
RTVSPropertyOp7
 70
     1
102
RTVSPropertyOp8
 70
     1
102
RTVSPropertyOp9
 70
     1
102
RTVSPropertyOp10
 70
     1
102
RTVSPropertyOp11
 70
     1
102
RTVSPropertyOp12
 70
     1
102
RTVSPropertyOp13
 70
     1
102
RTVSPropertyOp14
 70
     1
102
RTVSPropertyOp15
 70
     1
102
RTVSPropertyOp16
 70
     1
102
RTVSPropertyOp17
 70
     1
102
RTVSPropertyOp18
 70
     1
102
RTVSPropertyOp19
 70
     1
102
RTVSPropertyOp20
 70
     1
102
RTVSPropertyOp21
 70
     1
102
RTVSPropertyOp22
 70
     1
102
RTVSPropertyOp23
 70
     1
102
RTVSPropertyOp24
 70
     1
102
RTVSPropertyOp25
 70
     1
102
RTVSPropertyOp26
 70
     1
102
RTVSPropertyOp27
 70
     1
102
RTVSPropertyOp28
 70
     1
102
RTVSPropertyOp29
 70
     1
102
RTVSPropertyOp30
 70
     1
102
RTVSPropertyOp31
 70
     1
102
RTVSPropertyOp32
 70
     1
  0
XRECORD
  5
3CD9
102
{ACAD_REACTORS
330
3CD8
102
}
330
3CD8
100
AcDbXrecord
280
     1
102
RTVSPropertyOp0
 70
     1
102
RTVSPropertyOp1
 70
     1
102
RTVSPropertyOp2
 70
     1
102
RTVSPropertyOp3
 70
     1
102
RTVSPropertyOp4
 70
     1
102
RTVSPropertyOp5
 70
     1
102
RTVSPropertyOp6
 70
     1
102
RTVSPropertyOp7
 70
     1
102
RTVSPropertyOp8
 70
     1
102
RTVSPropertyOp9
 70
     1
102
RTVSPropertyOp10
 70
     1
102
RTVSPropertyOp11
 70
     1
102
RTVSPropertyOp12
 70
     1
102
RTVSPropertyOp13
 70
     1
102
RTVSPropertyOp14
 70
     1
102
RTVSPropertyOp15
 70
     1
102
RTVSPropertyOp16
 70
     1
102
RTVSPropertyOp17
 70
     1
102
RTVSPropertyOp18
 70
     1
102
RTVSPropertyOp19
 70
     1
102
RTVSPropertyOp20
 70
     1
102
RTVSPropertyOp21
 70
     1
102
RTVSPropertyOp22
 70
     1
102
RTVSPropertyOp23
 70
     1
102
RTVSPropertyOp24
 70
     1
102
RTVSPropertyOp25
 70
     1
102
RTVSPropertyOp26
 70
     1
102
RTVSPropertyOp27
 70
     1
102
RTVSPropertyOp28
 70
     1
102
RTVSPropertyOp29
 70
     1
102
RTVSPropertyOp30
 70
     1
102
RTVSPropertyOp31
 70
     1
102
RTVSPropertyOp32
 70
     1
  0
XRECORD
  5
3CD3
102
{ACAD_REACTORS
330
3CD2
102
}
330
3CD2
100
AcDbXrecord
280
     1
102
RTVSPropertyOp0
 70
     1
102
RTVSPropertyOp1
 70
     1
102
RTVSPropertyOp2
 70
     1
102
RTVSPropertyOp3
 70
     1
102
RTVSPropertyOp4
 70
     1
102
RTVSPropertyOp5
 70
     1
102
RTVSPropertyOp6
 70
     1
102
RTVSPropertyOp7
 70
     1
102
RTVSPropertyOp8
 70
     1
102
RTVSPropertyOp9
 70
     1
102
RTVSPropertyOp10
 70
     1
102
RTVSPropertyOp11
 70
     1
102
RTVSPropertyOp12
 70
     1
102
RTVSPropertyOp13
 70
     1
102
RTVSPropertyOp14
 70
     1
102
RTVSPropertyOp15
 70
     1
102
RTVSPropertyOp16
 70
     1
102
RTVSPropertyOp17
 70
     1
102
RTVSPropertyOp18
 70
     1
102
RTVSPropertyOp19
 70
     1
102
RTVSPropertyOp20
 70
     1
102
RTVSPropertyOp21
 70
     1
102
RTVSPropertyOp22
 70
     1
102
RTVSPropertyOp23
 70
     1
102
RTVSPropertyOp24
 70
     1
102
RTVSPropertyOp25
 70
     1
102
RTVSPropertyOp26
 70
     1
102
RTVSPropertyOp27
 70
     1
102
RTVSPropertyOp28
 70
     1
102
RTVSPropertyOp29
 70
     1
102
RTVSPropertyOp30
 70
     1
102
RTVSPropertyOp31
 70
     1
102
RTVSPropertyOp32
 70
     1
  0
XRECORD
  5
3CD5
102
{ACAD_REACTORS
330
3CD4
102
}
330
3CD4
100
AcDbXrecord
280
     1
102
RTVSPropertyOp0
 70
     1
102
RTVSPropertyOp1
 70
     1
102
RTVSPropertyOp2
 70
     1
102
RTVSPropertyOp3
 70
     1
102
RTVSPropertyOp4
 70
     1
102
RTVSPropertyOp5
 70
     1
102
RTVSPropertyOp6
 70
     1
102
RTVSPropertyOp7
 70
     1
102
RTVSPropertyOp8
 70
     1
102
RTVSPropertyOp9
 70
     1
102
RTVSPropertyOp10
 70
     1
102
RTVSPropertyOp11
 70
     1
102
RTVSPropertyOp12
 70
     1
102
RTVSPropertyOp13
 70
     1
102
RTVSPropertyOp14
 70
     1
102
RTVSPropertyOp15
 70
     1
102
RTVSPropertyOp16
 70
     1
102
RTVSPropertyOp17
 70
     1
102
RTVSPropertyOp18
 70
     1
102
RTVSPropertyOp19
 70
     1
102
RTVSPropertyOp20
 70
     1
102
RTVSPropertyOp21
 70
     1
102
RTVSPropertyOp22
 70
     1
102
RTVSPropertyOp23
 70
     1
102
RTVSPropertyOp24
 70
     1
102
RTVSPropertyOp25
 70
     1
102
RTVSPropertyOp26
 70
     1
102
RTVSPropertyOp27
 70
     1
102
RTVSPropertyOp28
 70
     1
102
RTVSPropertyOp29
 70
     1
102
RTVSPropertyOp30
 70
     1
102
RTVSPropertyOp31
 70
     1
102
RTVSPropertyOp32
 70
     1
  0
XRECORD
  5
3CC0
102
{ACAD_REACTORS
330
3CBF
102
}
330
3CBF
100
AcDbXrecord
280
     1
102
RTVSPropertyOp0
 70
     1
102
RTVSPropertyOp1
 70
     1
102
RTVSPropertyOp2
 70
     1
102
RTVSPropertyOp3
 70
     1
102
RTVSPropertyOp4
 70
     1
102
RTVSPropertyOp5
 70
     1
102
RTVSPropertyOp6
 70
     1
102
RTVSPropertyOp7
 70
     1
102
RTVSPropertyOp8
 70
     1
102
RTVSPropertyOp9
 70
     1
102
RTVSPropertyOp10
 70
     1
102
RTVSPropertyOp11
 70
     1
102
RTVSPropertyOp12
 70
     1
102
RTVSPropertyOp13
 70
     1
102
RTVSPropertyOp14
 70
     1
102
RTVSPropertyOp15
 70
     1
102
RTVSPropertyOp16
 70
     1
102
RTVSPropertyOp17
 70
     1
102
RTVSPropertyOp18
 70
     1
102
RTVSPropertyOp19
 70
     1
102
RTVSPropertyOp20
 70
     1
102
RTVSPropertyOp21
 70
     1
102
RTVSPropertyOp22
 70
     1
102
RTVSPropertyOp23
 70
     1
102
RTVSPropertyOp24
 70
     1
102
RTVSPropertyOp25
 70
     1
102
RTVSPropertyOp26
 70
     1
102
RTVSPropertyOp27
 70
     1
102
RTVSPropertyOp28
 70
     1
102
RTVSPropertyOp29
 70
     1
102
RTVSPropertyOp30
 70
     1
102
RTVSPropertyOp31
 70
     1
102
RTVSPropertyOp32
 70
     1
  0
XRECORD
  5
3CCF
102
{ACAD_REACTORS
330
3CCE
102
}
330
3CCE
100
AcDbXrecord
280
     1
102
RTVSPropertyOp0
 70
     1
102
RTVSPropertyOp1
 70
     1
102
RTVSPropertyOp2
 70
     1
102
RTVSPropertyOp3
 70
     1
102
RTVSPropertyOp4
 70
     1
102
RTVSPropertyOp5
 70
     1
102
RTVSPropertyOp6
 70
     1
102
RTVSPropertyOp7
 70
     1
102
RTVSPropertyOp8
 70
     1
102
RTVSPropertyOp9
 70
     1
102
RTVSPropertyOp10
 70
     1
102
RTVSPropertyOp11
 70
     1
102
RTVSPropertyOp12
 70
     1
102
RTVSPropertyOp13
 70
     1
102
RTVSPropertyOp14
 70
     1
102
RTVSPropertyOp15
 70
     1
102
RTVSPropertyOp16
 70
     1
102
RTVSPropertyOp17
 70
     1
102
RTVSPropertyOp18
 70
     1
102
RTVSPropertyOp19
 70
     1
102
RTVSPropertyOp20
 70
     1
102
RTVSPropertyOp21
 70
     1
102
RTVSPropertyOp22
 70
     1
102
RTVSPropertyOp23
 70
     1
102
RTVSPropertyOp24
 70
     1
102
RTVSPropertyOp25
 70
     1
102
RTVSPropertyOp26
 70
     1
102
RTVSPropertyOp27
 70
     1
102
RTVSPropertyOp28
 70
     1
102
RTVSPropertyOp29
 70
     1
102
RTVSPropertyOp30
 70
     1
102
RTVSPropertyOp31
 70
     1
102
RTVSPropertyOp32
 70
     1
  0
XRECORD
  5
3CD7
102
{ACAD_REACTORS
330
3CD6
102
}
330
3CD6
100
AcDbXrecord
280
     1
102
RTVSPropertyOp0
 70
     1
102
RTVSPropertyOp1
 70
     1
102
RTVSPropertyOp2
 70
     1
102
RTVSPropertyOp3
 70
     1
102
RTVSPropertyOp4
 70
     1
102
RTVSPropertyOp5
 70
     1
102
RTVSPropertyOp6
 70
     1
102
RTVSPropertyOp7
 70
     1
102
RTVSPropertyOp8
 70
     1
102
RTVSPropertyOp9
 70
     1
102
RTVSPropertyOp10
 70
     1
102
RTVSPropertyOp11
 70
     1
102
RTVSPropertyOp12
 70
     1
102
RTVSPropertyOp13
 70
     1
102
RTVSPropertyOp14
 70
     1
102
RTVSPropertyOp15
 70
     1
102
RTVSPropertyOp16
 70
     1
102
RTVSPropertyOp17
 70
     1
102
RTVSPropertyOp18
 70
     1
102
RTVSPropertyOp19
 70
     1
102
RTVSPropertyOp20
 70
     1
102
RTVSPropertyOp21
 70
     1
102
RTVSPropertyOp22
 70
     1
102
RTVSPropertyOp23
 70
     1
102
RTVSPropertyOp24
 70
     1
102
RTVSPropertyOp25
 70
     1
102
RTVSPropertyOp26
 70
     1
102
RTVSPropertyOp27
 70
     1
102
RTVSPropertyOp28
 70
     1
102
RTVSPropertyOp29
 70
     1
102
RTVSPropertyOp30
 70
     1
102
RTVSPropertyOp31
 70
     1
102
RTVSPropertyOp32
 70
     1
  0
ENDSEC
  0
EOF
